<?xml version="1.0" standalone="no"?>
<!DOCTYPE svg PUBLIC "-//W3C//DTD SVG 1.1//EN" "http://www.w3.org/Graphics/SVG/1.1/DTD/svg11.dtd" >
<svg xmlns="http://www.w3.org/2000/svg">
<metadata>
This is a custom SVG webfont generated by Font Squirrel.
Copyright   : Copyright c 2008 by Jos Buivenga All rights reserved
Designer    : Jos Buivenga
Foundry     : Jos Buivenga
Foundry URL : httpwwwjosbuivengademonnl
</metadata>
<defs>
<font id="MuseoSans500" horiz-adv-x="811" >
<font-face units-per-em="2048" ascent="1536" descent="-512" />
<missing-glyph horiz-adv-x="536" />
<glyph unicode="&#xfb00;" horiz-adv-x="1402" d="M84 895v162h131v35q0 100 29.5 174.5t70.5 115.5t100.5 64.5t103.5 31t93 7.5l78 -6v-172q-23 4 -53 4q-35 0 -67.5 -8.5t-70.5 -29t-60.5 -68.5t-22.5 -118v-30h502v35q0 100 28.5 174.5t70.5 115.5t100.5 64.5t103.5 31t94 7.5l76 -6v-172q-20 4 -52 4 q-37 0 -68.5 -8.5t-69.5 -29t-60.5 -68.5t-22.5 -118v-30h250v-162h-250v-895h-200v895h-502v-895h-201v895h-131z" />
<glyph unicode="&#xfb01;" horiz-adv-x="1220" d="M84 895v162h131v35q0 100 29.5 174.5t70.5 115.5t100.5 64.5t103.5 31t93 7.5l78 -6v-172q-23 4 -53 4q-35 0 -67.5 -8.5t-70.5 -29t-60.5 -68.5t-22.5 -118v-30h647v-1057h-203v895h-444v-895h-201v895h-131zM858 1268v207h205v-207h-205z" />
<glyph unicode="&#xfb02;" horiz-adv-x="1255" d="M84 879v163h131v50q0 100 29.5 174.5t70.5 115.5t100.5 64.5t103.5 31t93 7.5l78 -6v-172q-23 4 -53 4q-35 0 -67.5 -8.5t-70.5 -29t-60.5 -68.5t-22.5 -118v-45h250v-163h-250v-879h-201v879h-131zM848 289v1186h203v-1151q0 -88 29.5 -119t82.5 -31l35 2v-180 q-31 -4 -65 -4q-285 0 -285 297z" />
<glyph unicode="&#xfb03;" horiz-adv-x="1923" d="M84 895v162h131v35q0 100 29.5 174.5t70.5 115.5t100.5 64.5t103.5 31t93 7.5l78 -6v-172q-23 4 -53 4q-35 0 -67.5 -8.5t-70.5 -29t-60.5 -68.5t-22.5 -118v-30h502v35q0 100 28.5 174.5t70.5 115.5t100.5 64.5t103.5 31t94 7.5l76 -6v-172q-20 4 -52 4 q-37 0 -68.5 -8.5t-69.5 -29t-60.5 -68.5t-22.5 -118v-30h647v-1057h-202v895h-445v-895h-200v895h-502v-895h-201v895h-131zM1561 1268v207h204v-207h-204z" />
<glyph unicode="&#xfb04;" horiz-adv-x="1955" d="M84 895v162h131v35q0 100 29.5 174.5t70.5 115.5t100.5 64.5t103.5 31t93 7.5l78 -6v-172q-23 4 -53 4q-35 0 -67.5 -8.5t-70.5 -29t-60.5 -68.5t-22.5 -118v-30h502v35q0 100 28.5 174.5t70.5 115.5t100.5 64.5t103.5 31t94 7.5l76 -6v-172q-20 4 -52 4 q-37 0 -68.5 -8.5t-69.5 -29t-60.5 -68.5t-22.5 -118v-30h250v-162h-250v-895h-200v895h-502v-895h-201v895h-131zM1550 289v1186h203v-1151q0 -88 28.5 -119t84.5 -31l35 2v-180q-31 -4 -66 -4q-285 0 -285 297z" />
<glyph unicode="fj" horiz-adv-x="1218" d="M84 895v162h131v35q0 100 29.5 174.5t70.5 115.5t100.5 64.5t103.5 31t93 7.5l78 -6v-172q-23 4 -53 4q-35 0 -67.5 -8.5t-70.5 -29t-60.5 -68.5t-22.5 -118v-30h645v-1092q0 -125 -43 -210t-111.5 -121.5t-127 -50t-122.5 -13.5l-69 4v174q18 -2 45 -2q35 0 68.5 8 t72.5 28.5t62.5 71t23.5 123.5v918h-444v-895h-201v895h-131zM858 1268v207h205v-207h-205z" />
<glyph unicode=" "  horiz-adv-x="536" />
<glyph unicode="&#x09;" horiz-adv-x="536" />
<glyph unicode="&#xa0;" horiz-adv-x="536" />
<glyph unicode="!" horiz-adv-x="663" d="M227 1475h209l-12 -1069h-182zM229 0v203h207v-203h-207z" />
<glyph unicode="&#x22;" horiz-adv-x="712" d="M131 1108v391h160v-391h-160zM424 1108v391h160v-391h-160z" />
<glyph unicode="#" horiz-adv-x="1499" d="M92 399l25 154h274l60 352h-269l25 152h272l72 418h170l-74 -418h324l73 418h170l-73 -418h274l-29 -152h-270l-63 -352h272l-29 -154h-268l-72 -399h-168l68 399h-324l-69 -399h-168l67 399h-270zM559 553h324l63 352h-323z" />
<glyph unicode="$" horiz-adv-x="1181" d="M113 170l116 156q6 -6 17.5 -16.5t51.5 -39t81 -49t103.5 -37t123.5 -16.5q109 0 181.5 58.5t72.5 158.5q0 82 -73.5 144.5t-180 107.5t-213 97t-181.5 141.5t-75 211.5q0 154 107.5 267.5t281.5 138.5v197h148v-195q104 -8 193 -43t128 -70l37 -30l-94 -172 q-14 14 -43 35.5t-113 57.5t-168 36q-117 0 -192.5 -63.5t-75.5 -153.5q0 -57 40 -104.5t103.5 -81.5t141.5 -64.5t154.5 -69.5t140 -87t103.5 -123t40 -171q0 -162 -106.5 -276.5t-288.5 -134.5v-193h-148v193q-236 23 -397 172z" />
<glyph unicode="%" horiz-adv-x="1589" d="M100 1190q0 129 92.5 219t223.5 90t224 -90t93 -218t-93 -219t-224 -91t-223.5 90t-92.5 219zM131 0l1129 1475h196l-1128 -1475h-197zM262 1190q0 -66 44 -110t109.5 -44t109.5 44t44 110t-44 112t-109.5 46t-109.5 -46t-44 -112zM856 285q0 127 93 218t225 91 q129 0 223 -91t94 -219t-94 -218.5t-223 -90.5q-133 0 -225.5 89.5t-92.5 220.5zM1020 285q0 -68 44 -112t110 -44t110.5 45t44.5 109.5t-45 110.5t-109.5 46t-109.5 -46t-45 -109z" />
<glyph unicode="&#x26;" horiz-adv-x="1427" d="M113 414q0 125 69.5 231.5t190.5 147.5v4q-10 2 -22.5 8t-45.5 30.5t-59.5 58.5t-47 94.5t-20.5 131.5q0 178 126 278.5t327 100.5q35 0 80 -6t71 -10l29 -6l-53 -164q-59 12 -111 12q-113 0 -186.5 -60.5t-73.5 -164.5q0 -41 11.5 -78t38 -74t84 -59.5t136.5 -22.5h275 v201h203v-201h196v-178h-196v-196q0 -246 -136.5 -381.5t-373.5 -135.5q-227 0 -369.5 125.5t-142.5 313.5zM324 424q0 -109 84 -183.5t217 -74.5q145 0 226 82t81 252v188h-283q-156 0 -240.5 -69.5t-84.5 -194.5z" />
<glyph unicode="'" horiz-adv-x="423" d="M131 1108v391h162v-391h-162z" />
<glyph unicode="(" horiz-adv-x="630" d="M152 711q0 438 243 825h176q-236 -395 -235 -827q0 -479 235 -908h-176q-243 404 -243 910z" />
<glyph unicode=")" horiz-adv-x="630" d="M59 -199q236 428 236 908q0 432 -236 827h177q244 -387 243 -825q0 -506 -243 -910h-177z" />
<glyph unicode="*" horiz-adv-x="974" d="M76 1108l53 174l279 -104l-15 297h191l-19 -297l281 104l57 -174l-287 -78v-4l185 -229l-150 -109l-159 246h-5l-163 -246l-150 109l184 229v4z" />
<glyph unicode="+" horiz-adv-x="1425" d="M162 514v162h467v514h172v-514h465v-162h-465v-514h-172v514h-467z" />
<glyph unicode="," horiz-adv-x="532" d="M57 -211l129 430h207l-176 -430h-160z" />
<glyph unicode="-" horiz-adv-x="985" d="M188 506v180h611v-180h-611z" />
<glyph unicode="." horiz-adv-x="530" d="M160 0v215h213v-215h-213z" />
<glyph unicode="/" horiz-adv-x="843" d="M76 -88l530 1642h180l-532 -1642h-178z" />
<glyph unicode="0" horiz-adv-x="1304" d="M131 739q0 760 520 760q522 0 523 -760q0 -764 -523 -764q-520 0 -520 764zM342 739q0 -573 309 -573q311 0 312 573q0 571 -312 572q-309 -1 -309 -572z" />
<glyph unicode="1" horiz-adv-x="1019" d="M106 1133l353 342h184v-1295h322v-180h-848v180h325v953l2 92h-4q-16 -35 -69 -86l-140 -135z" />
<glyph unicode="2" horiz-adv-x="1193" d="M115 113q0 123 53 228t134 175t174 138.5t174 124t134.5 129t53.5 153.5q0 109 -74 177.5t-193 68.5q-53 0 -104 -20.5t-85 -47.5t-59.5 -54.5t-37.5 -47.5l-11 -19l-153 103q6 10 16 29.5t51 67.5t90.5 85t132.5 66.5t177 29.5q205 0 335 -116.5t130 -307.5 q0 -98 -39 -183t-101.5 -146.5t-137.5 -119t-150.5 -106.5t-138 -99t-102.5 -112.5t-40 -128.5h731v-180h-950q-10 68 -10 113z" />
<glyph unicode="3" horiz-adv-x="1183" d="M84 176l113 156q16 -18 45.5 -44t123 -71t187.5 -45q127 0 214 76t87 192q0 129 -98.5 201t-243.5 72h-102l-50 110l324 377l90 96v4q-43 -6 -125 -6h-499v181h882v-132l-401 -462q172 -18 302 -127t130 -305.5t-140.5 -335t-361.5 -138.5q-82 0 -163 20.5t-135 50.5 t-97 58.5t-62 49.5z" />
<glyph unicode="4" horiz-adv-x="1265" d="M66 395v129l679 951h236v-906h201v-174h-201v-395h-203v395h-712zM293 569h485v539l10 145h-6q-33 -70 -71 -120l-418 -560v-4z" />
<glyph unicode="5" horiz-adv-x="1175" d="M100 180l115 150q4 -6 13.5 -16.5t41 -39t66.5 -49t90 -37t113 -16.5q133 0 228 83t95 215t-96 217t-240 85q-66 0 -127 -18.5t-90 -34.5l-30 -19l-119 43l71 732h744v-181h-563l-35 -311l-12 -76h6q80 45 188 45q229 0 371.5 -139t142.5 -340q0 -215 -149.5 -356.5 t-372.5 -141.5q-252 0 -422 170z" />
<glyph unicode="6" horiz-adv-x="1249" d="M123 670q0 147 41 290.5t118.5 266.5t209 197.5t296.5 74.5q76 0 148 -14.5t104 -30.5l33 -14l-65 -178q-94 49 -211 49q-190 0 -303 -145.5t-142 -350.5h4q47 61 138.5 100t189.5 39q207 0 336 -139t129 -348q0 -217 -134 -354.5t-341 -137.5q-240 0 -395.5 192 t-155.5 503zM340 571q0 -150 98.5 -277.5t233.5 -127.5q125 0 198.5 85t73.5 216q0 139 -83 225t-220 86q-123 0 -212 -62.5t-89 -144.5z" />
<glyph unicode="7" horiz-adv-x="1103" d="M74 1294v181h985v-142l-666 -1333h-213l574 1161q18 37 39.5 71t33.5 50l13 14v4q-33 -6 -109 -6h-657z" />
<glyph unicode="8" horiz-adv-x="1267" d="M119 426q0 78 29.5 149.5t76.5 123t75 77t54 43.5q-164 119 -164 295q0 158 119 271.5t340 113.5q207 0 336 -107.5t129 -285.5q0 -190 -176 -385q201 -123 201 -313q0 -178 -141.5 -305.5t-364.5 -127.5t-368.5 126t-145.5 325zM330 438q0 -123 90 -199.5t213 -76.5 q119 0 206 70.5t87 181.5q0 37 -18.5 71.5t-44 58t-74 52.5t-85 45t-99 45t-97.5 45q-178 -123 -178 -293zM395 1110q0 -31 10.5 -57.5t21.5 -48t41 -44t48.5 -35t60 -34t62 -30.5t72 -29.5t69.5 -28.5q131 129 131 289q0 100 -73.5 161.5t-190.5 61.5q-119 0 -185.5 -59.5 t-66.5 -145.5z" />
<glyph unicode="9" horiz-adv-x="1249" d="M102 1008q0 217 134.5 354t341.5 137q238 0 394 -191.5t156 -502.5q0 -147 -40.5 -289.5t-118.5 -266.5t-209 -199t-297 -75q-76 0 -148.5 14.5t-105.5 30.5l-31 15l66 180q94 -49 211 -49q190 0 302.5 144.5t141.5 348.5h-4q-45 -61 -137 -99t-191 -38 q-207 0 -336 138.5t-129 347.5zM307 1008q0 -139 82 -225.5t221 -86.5q123 0 212 63.5t89 143.5q0 150 -98 279t-233 129q-127 0 -200 -86t-73 -217z" />
<glyph unicode=":" horiz-adv-x="608" d="M199 0v215h213v-215h-213zM199 842v215h213v-215h-213z" />
<glyph unicode=";" horiz-adv-x="610" d="M98 -211l111 430h209l-156 -430h-164zM211 842v215h213v-215h-213z" />
<glyph unicode="&#x3c;" horiz-adv-x="1165" d="M70 526v138l972 436v-187l-747 -315v-4l747 -315v-187z" />
<glyph unicode="=" horiz-adv-x="1396" d="M201 315v164h995v-164h-995zM201 711v161h995v-161h-995z" />
<glyph unicode="&#x3e;" horiz-adv-x="1165" d="M123 92v187l745 315v4l-745 315v187l975 -436v-138z" />
<glyph unicode="?" horiz-adv-x="1019" d="M68 1370q14 14 42.5 37t125 59.5t196.5 36.5q182 0 309 -106.5t127 -274.5q0 -96 -36.5 -173t-91 -128t-111 -98t-93 -105.5t-36.5 -125.5v-86h-199v98q0 88 37 159.5t89 122t104.5 96.5t88 103t35.5 123q0 86 -67.5 146.5t-169.5 60.5q-59 0 -118.5 -22.5t-90.5 -43.5 l-29 -22zM297 0v203h207v-203h-207z" />
<glyph unicode="@" horiz-adv-x="1714" d="M123 503.5q0 323.5 221 548t541 224.5q283 0 414 -120t131 -304v-590h149v-153h-569q-190 0 -311 115.5t-121 279.5q0 160 119.5 275.5t312.5 115.5h225q-4 92 -93 153.5t-245 61.5q-242 0 -406.5 -179t-164.5 -427q0 -254 165.5 -427t428.5 -173v-166q-348 0 -572.5 221 t-224.5 544.5zM780 506q0 -102 70 -173t174 -71h211v492h-207q-109 0 -178.5 -72t-69.5 -176z" />
<glyph unicode="A" horiz-adv-x="1310" d="M16 0l531 1475h217l530 -1475h-215l-147 424h-555l-148 -424h-213zM430 596h447l-162 467l-58 209h-4q-33 -133 -57 -209z" />
<glyph unicode="B" horiz-adv-x="1323" d="M201 0v1475h516q190 0 309 -100.5t119 -274.5q0 -109 -49 -192t-135 -128v-4q113 -33 178 -131t65 -225q0 -201 -135 -310.5t-340 -109.5h-528zM408 180h331q117 0 184.5 67.5t67.5 182.5q0 113 -69.5 183.5t-184.5 70.5h-329v-504zM408 854h309q98 0 157.5 62.5 t59.5 161t-58.5 157.5t-162.5 59h-305v-440z" />
<glyph unicode="C" horiz-adv-x="1507" d="M100 745q0 322 214 538t536 216q100 0 192.5 -19.5t151.5 -48t105.5 -57t66.5 -49.5l20 -18l-102 -156q-18 18 -54 45t-147.5 72t-224.5 45q-242 0 -393.5 -163t-151.5 -402q0 -242 154 -412t393 -170q123 0 237.5 48t166.5 95l53 47l110 -147q-8 -10 -24.5 -25.5 t-71.5 -55.5t-116.5 -71.5t-159 -56.5t-201.5 -25q-328 0 -541 221t-213 549z" />
<glyph unicode="D" horiz-adv-x="1544" d="M201 0v1475h489q342 0 545 -196t203 -540q0 -346 -203 -542.5t-545 -196.5h-489zM408 180h266q254 0 402.5 146.5t148.5 412.5t-148.5 410.5t-402.5 144.5h-266v-1114z" />
<glyph unicode="E" horiz-adv-x="1196" d="M201 0v1475h856v-181h-649v-460h528v-181h-528v-473h684v-180h-891z" />
<glyph unicode="F" horiz-adv-x="1087" d="M201 0v1475h813v-181h-606v-483h516v-180h-516v-631h-207z" />
<glyph unicode="G" horiz-adv-x="1587" d="M102 739q0 322 215 541t537 219q98 0 190.5 -18.5t152.5 -43t106.5 -51t66.5 -45.5l21 -18l-105 -156q-18 16 -53 41t-143.5 65t-219.5 40q-252 0 -403.5 -163t-151.5 -407q0 -254 155 -415.5t388 -161.5q113 0 217.5 45t153.5 92l47 45v213h-240v180h428v-741h-182v92 l2 62h-4l-18 -19q-12 -12 -56.5 -43t-92.5 -54.5t-126 -43t-160 -19.5q-303 0 -514 216t-211 548z" />
<glyph unicode="H" horiz-adv-x="1579" d="M201 0v1475h207v-648h763v648h207v-1475h-207v647h-763v-647h-207z" />
<glyph unicode="I" horiz-adv-x="606" d="M201 0v1475h207v-1475h-207z" />
<glyph unicode="J" horiz-adv-x="1120" d="M63 424v74h205v-64q0 -139 67.5 -203.5t166 -64.5t164 62.5t65.5 197.5v868h-373v181h580v-1051q0 -223 -129 -336t-309.5 -113t-308.5 114t-128 335z" />
<glyph unicode="K" horiz-adv-x="1300" d="M201 0v1475h207v-621h219l372 621h228l-428 -701v-4l454 -770h-233l-393 676h-219v-676h-207z" />
<glyph unicode="L" horiz-adv-x="1103" d="M201 0v1475h207v-1295h659v-180h-866z" />
<glyph unicode="M" horiz-adv-x="1808" d="M154 0l120 1475h218l337 -799l74 -197h4q39 117 72 197l340 799h217l119 -1475h-205l-74 930l-2 217h-4q-43 -135 -80 -217l-293 -664h-184l-293 664q-33 80 -80 221h-4q1 -33 1 -63q0 -91 -5 -158l-72 -930h-206z" />
<glyph unicode="N" horiz-adv-x="1581" d="M201 0v1475h205l655 -959q25 -35 55.5 -88t48.5 -90l19 -35h4q-14 131 -14 213v959h206v-1475h-202l-658 956q-55 82 -123 215h-4q14 -131 15 -215v-956h-207z" />
<glyph unicode="O" horiz-adv-x="1714" d="M100 748q0 317 219.5 534t539 217t537.5 -217t218 -534q0 -326 -218 -549.5t-537.5 -223.5t-539 223.5t-219.5 549.5zM313 748q0 -246 159 -414t386 -168t385 168t158 414q0 240 -158 402.5t-385 162.5t-386 -162.5t-159 -402.5z" />
<glyph unicode="P" horiz-adv-x="1267" d="M201 0v1475h538q205 0 335 -126t130 -335t-131 -339t-334 -130h-331v-545h-207zM408 725h299q133 0 208.5 77t75.5 212q0 131 -75.5 205.5t-206.5 74.5h-301v-569z" />
<glyph unicode="Q" horiz-adv-x="1738" d="M102 745q0 319 218.5 536.5t537.5 217.5q322 0 540 -217t218 -537q0 -274 -172 -487l174 -166l-121 -129l-170 170q-199 -158 -469 -158q-319 0 -537.5 223t-218.5 547zM315 745q0 -246 157 -412.5t386 -166.5q184 0 320 108l-172 168l120 129l168 -170q109 150 109 344 q0 242 -156.5 405t-388.5 163q-229 0 -386 -163t-157 -405z" />
<glyph unicode="R" horiz-adv-x="1337" d="M201 0v1475h450q186 0 277 -33q115 -43 181.5 -149.5t66.5 -250.5q0 -141 -72 -249.5t-193 -149.5v-4q16 -18 43 -68l314 -571h-234l-311 588h-315v-588h-207zM408 766h297q121 0 190.5 72.5t69.5 195.5q0 162 -117 228q-61 33 -203 32h-237v-528z" />
<glyph unicode="S" horiz-adv-x="1138" d="M88 170l117 156q6 -6 17 -16.5t51 -39t81 -49t103.5 -37t124.5 -16.5q109 0 181.5 58.5t72.5 158.5q0 63 -40 113.5t-102.5 86.5t-138.5 68.5t-152.5 69.5t-139 83t-102.5 118.5t-40 162.5q0 174 135 293t342 119q121 0 225.5 -37t147.5 -76l45 -34l-94 -172 q-14 14 -43 35.5t-113 57.5t-168 36q-115 0 -191.5 -63.5t-76.5 -153.5q0 -82 73.5 -140.5t179 -100.5t211 -92t178 -143.5t72.5 -224.5q0 -178 -126.5 -297t-339.5 -119q-88 0 -171 19.5t-138.5 48.5t-98.5 57.5t-61 49.5z" />
<glyph unicode="T" horiz-adv-x="1236" d="M10 1294v181h1219v-181h-506v-1294h-207v1294h-506z" />
<glyph unicode="U" horiz-adv-x="1519" d="M180 522v953h207v-953q0 -168 100.5 -262t270.5 -94q174 0 275.5 94t101.5 266v949h206v-953q0 -244 -160.5 -395.5t-419.5 -151.5t-420 151.5t-161 395.5z" />
<glyph unicode="V" horiz-adv-x="1318" d="M12 1475h224l366 -1043l55 -203h5q31 123 57 203l368 1043h222l-545 -1475h-207z" />
<glyph unicode="W" horiz-adv-x="1978" d="M70 1475h213l260 -1082q18 -80 26 -157h4q12 76 33 157l289 1082h182l289 -1082l31 -157h4q6 78 29 157l270 1082h213l-385 -1475h-242l-254 956q-25 94 -45 209h-4q-18 -115 -43 -209l-254 -956h-242z" />
<glyph unicode="X" horiz-adv-x="1277" d="M45 0l467 760l-436 715h237l232 -400l94 -174h4q43 94 90 174l232 400h239l-438 -715l467 -760h-234l-268 453l-94 170h-4q-39 -88 -88 -170l-266 -453h-234z" />
<glyph unicode="Y" horiz-adv-x="1226" d="M16 1475h234l274 -486l90 -184h4q43 102 91 184l268 486h235l-493 -850v-625h-207v625z" />
<glyph unicode="Z" horiz-adv-x="1267" d="M86 0v137l711 1024q25 37 50 71t42 50l14 14v4q-41 -6 -110 -6h-670v181h1036v-136l-710 -1026q-25 -35 -51.5 -68.5t-43.5 -47.5l-12 -17v-4q41 4 111 4h714v-180h-1081z" />
<glyph unicode="[" horiz-adv-x="628" d="M211 -199v1735h344v-154h-166v-1425h166v-156h-344z" />
<glyph unicode="\" horiz-adv-x="843" d="M59 1554h179l530 -1642h-178z" />
<glyph unicode="]" horiz-adv-x="630" d="M74 -43h168v1425h-168v154h346v-1735h-346v156z" />
<glyph unicode="^" horiz-adv-x="1280" d="M143 516l418 959h133l416 -959h-182l-301 735l-299 -735h-185z" />
<glyph unicode="_" horiz-adv-x="1239" d="M59 0h1123v-164h-1123v164z" />
<glyph unicode="`" horiz-adv-x="1040" d="M336 1843h217l154 -266h-172z" />
<glyph unicode="a" horiz-adv-x="1101" d="M74 297q0 362 637 362h45v21q0 231 -232 231q-160 -2 -295 -102l-84 147q18 14 50 36t134.5 55.5t211.5 33.5q201 0 309 -106.5t108 -306.5v-668h-188v100l4 84h-4q-4 -8 -11 -23.5t-35 -50t-62.5 -62.5t-96 -50.5t-133.5 -22.5q-145 0 -251.5 85t-106.5 237zM279 307 q0 -70 52 -120t146 -50q121 0 201 105.5t80 232.5v33h-51q-428 0 -428 -201z" />
<glyph unicode="b" horiz-adv-x="1253" d="M160 0v1475h200v-484l-4 -88h4l13 19q8 12 36.5 43.5t63.5 54t96.5 42t130.5 19.5q211 0 337 -152.5t126 -400t-134 -400.5t-345 -153q-68 0 -126 18.5t-94 46.5t-62.5 53.5t-39.5 43.5l-12 19h-4q4 -33 4 -78v-78h-190zM354 524q0 -152 79 -264.5t220 -112.5 q129 0 217 101.5t88 277.5q0 172 -81.5 275.5t-217.5 103.5q-129 0 -217 -95.5t-88 -285.5z" />
<glyph unicode="c" horiz-adv-x="1140" d="M84 528q0 236 159.5 394.5t405.5 158.5q117 0 216.5 -37.5t142.5 -78.5l39 -37l-97 -142q-12 12 -35.5 33t-100.5 54.5t-157 33.5q-158 0 -262 -106.5t-104 -269t105.5 -272t267.5 -109.5q88 0 169.5 35.5t118.5 70.5l37 37l82 -150l-17 -17q-11 -11 -51 -40t-86.5 -51.5 t-118 -41t-149.5 -18.5q-248 0 -406.5 156.5t-158.5 396.5z" />
<glyph unicode="d" horiz-adv-x="1255" d="M90 528q0 250 133 401.5t344 151.5q70 0 128.5 -16t93 -41t60 -50.5t36.5 -41.5l10 -17h4q-4 31 -4 70v490h203v-1475h-193v100l2 72h-4q-4 -8 -12 -21.5t-36 -47t-64.5 -60.5t-99 -47.5t-136.5 -20.5q-213 0 -339 152.5t-126 400.5zM297 528q0 -172 82 -275t217 -103 q129 0 217 95t88 285q0 154 -79 265.5t-220 111.5q-129 0 -217 -101.5t-88 -277.5z" />
<glyph unicode="e" horiz-adv-x="1159" d="M86 528q0 248 149.5 400.5t378.5 152.5q215 0 336 -139t121 -354l-6 -88h-770q8 -168 111.5 -259t250.5 -91q168 0 306 118l8 6l84 -149q-16 -16 -50 -41t-140.5 -67t-219.5 -42q-246 0 -402.5 157.5t-156.5 395.5zM301 651h563q-4 131 -75.5 201t-178.5 70 q-119 0 -204 -72t-105 -199z" />
<glyph unicode="f" horiz-adv-x="700" d="M84 879v163h131v50q0 100 29.5 174.5t70.5 115.5t100.5 64.5t103.5 31t93 7.5l78 -6v-172q-23 4 -53 4q-35 0 -67.5 -8.5t-70.5 -29t-60.5 -68.5t-22.5 -118v-45h250v-163h-250v-879h-201v879h-131z" />
<glyph unicode="g" horiz-adv-x="1236" d="M90 553.5q0 234.5 123 381t338 146.5q217 0 317 -133l15 -22h6q-4 14 -4 32v99h194v-1014q0 -125 -45 -221t-121.5 -151.5t-169 -82t-196.5 -26.5q-190 0 -361 88l66 157q133 -72 291 -71q152 0 243 72.5t91 224.5v78l2 67h-5q-98 -166 -313 -166t-343 153.5t-128 388z M295 557q0 -166 82 -267.5t225 -101.5q123 0 201 85t78 278q0 356 -297 356q-137 0 -213 -93t-76 -257z" />
<glyph unicode="h" horiz-adv-x="1259" d="M160 0v1475h200v-541l-4 -88h4q43 92 145.5 163.5t246.5 71.5q365 0 364 -405v-676h-203v631q0 127 -42 196.5t-158.5 69.5t-208.5 -73.5t-125 -188.5q-18 -55 -19 -139v-496h-200z" />
<glyph unicode="i" horiz-adv-x="518" d="M156 1268v207h204v-207h-204zM160 0v1057h200v-1057h-200z" />
<glyph unicode="j" horiz-adv-x="516" d="M-115 -252q18 -2 45 -2q37 0 70 8t72 28.5t63.5 71t24.5 123.5v1080h198v-1092q0 -125 -42 -210t-111.5 -121.5t-128 -50t-119.5 -13.5l-72 4v174zM156 1268v207h204v-207h-204z" />
<glyph unicode="k" horiz-adv-x="1097" d="M160 0v1475h200v-807h150l289 389h229l-352 -465v-4l391 -588h-236l-317 498h-154v-498h-200z" />
<glyph unicode="l" horiz-adv-x="552" d="M145 289v1186h203v-1151q0 -88 30 -119t83 -31l37 2v-180q-33 -4 -68 -4q-285 0 -285 297z" />
<glyph unicode="m" horiz-adv-x="1908" d="M160 0v1057h194v-139l-4 -78h4q41 98 143.5 169.5t221.5 71.5q262 0 317 -239h4q45 100 148.5 169.5t228.5 69.5q348 0 348 -405v-676h-202v633q0 127 -39 196.5t-150 69.5q-106 0 -186 -78t-111 -192q-14 -61 -14 -146v-483h-203v633q0 125 -36 195.5t-147.5 70.5 t-191 -80t-110.5 -198q-14 -51 -15 -138v-483h-200z" />
<glyph unicode="n" horiz-adv-x="1259" d="M160 0v1057h194v-139l-4 -78h4q43 90 143.5 165.5t254.5 75.5q365 0 364 -405v-676h-203v631q0 127 -42 196.5t-158 69.5q-119 0 -210 -72.5t-124 -187.5q-18 -55 -19 -141v-496h-200z" />
<glyph unicode="o" horiz-adv-x="1302" d="M82 530.5q0 237.5 165 394t405.5 156.5t405.5 -156.5t165 -394t-166 -396.5t-404.5 -159t-404.5 159t-166 396.5zM289 531.5q0 -162.5 106.5 -272t255.5 -109.5q154 0 259.5 107.5t105.5 272.5q0 164 -105.5 270.5t-259.5 106.5q-150 0 -256 -106.5t-106 -269z" />
<glyph unicode="p" horiz-adv-x="1253" d="M160 -418v1475h184v-90l-4 -76h4q4 8 11 20.5t38 45t68 58t100.5 46t138.5 20.5q211 0 337 -152.5t126 -400t-134 -400.5t-343 -153q-66 0 -123 17.5t-93 44t-61.5 51.5t-35.5 41l-13 18h-4q4 -37 4 -90v-475h-200zM354 524q0 -152 81 -264.5t218 -112.5q129 0 217 101.5 t88 277.5q0 172 -81.5 275.5t-217.5 103.5q-129 0 -217 -95.5t-88 -285.5z" />
<glyph unicode="q" horiz-adv-x="1255" d="M90 528q0 250 133 401.5t344 151.5q70 0 129.5 -18.5t95 -43t62.5 -51t39 -44.5l10 -19h4q-2 31 -2 72v80h193v-1475h-203v484l4 90h-4q-4 -8 -12.5 -19.5t-36 -42.5t-63 -55.5t-96 -44t-132.5 -19.5q-213 0 -339 152.5t-126 400.5zM297 528q0 -172 82 -275t217 -103 q129 0 217 95t88 285q0 154 -79 265.5t-220 111.5q-129 0 -217 -101.5t-88 -277.5z" />
<glyph unicode="r" horiz-adv-x="782" d="M160 0v1057h194v-185l-4 -77h4q39 121 127 197.5t209 76.5l51 -4v-201q-27 6 -57 6q-98 0 -180 -66.5t-117 -180.5q-27 -82 -27 -191v-432h-200z" />
<glyph unicode="s" horiz-adv-x="933" d="M74 129l98 145q12 -16 36.5 -35.5t104.5 -54t162 -34.5q70 0 122 35.5t52 97.5q0 51 -56 91t-135 70.5t-159 66.5t-136.5 105.5t-56.5 163.5q0 141 109 221t274 80q102 0 187.5 -28.5t120.5 -57.5l32 -30l-81 -152q-10 10 -30 25.5t-88.5 42t-142.5 26.5t-124 -32.5 t-50 -98.5q0 -51 56.5 -89t136.5 -67.5t158.5 -66.5t135 -105.5t56.5 -164.5q0 -135 -105.5 -221.5t-275.5 -86.5q-117 0 -216 39t-142 78z" />
<glyph unicode="t" horiz-adv-x="747" d="M66 879v163h143v306h197v-306h253v-163h-253v-469q0 -61 16 -106.5t40.5 -70t56.5 -39t58.5 -18.5t53.5 -4l49 4v-180q-31 -4 -72 -4q-51 0 -97 6t-104.5 31.5t-100.5 65.5t-72.5 116t-30.5 176v492h-137z" />
<glyph unicode="u" horiz-adv-x="1247" d="M143 381v676h203v-631q0 -127 41 -194.5t158 -67.5q156 0 250 116.5t94 280.5v496h201v-1057h-195v139l4 78h-4q-41 -92 -144.5 -167t-244.5 -75q-363 0 -363 406z" />
<glyph unicode="v" horiz-adv-x="1048" d="M14 1057h215l258 -715q8 -25 16.5 -61.5t14.5 -59.5l4 -22h4l4 22q6 23 15.5 59.5t17.5 61.5l258 715h213l-391 -1057h-233z" />
<glyph unicode="w" horiz-adv-x="1699" d="M35 1057h215l221 -742q6 -23 13.5 -52.5t9.5 -45.5l4 -14h4q10 59 26 112l230 740h186l227 -740l29 -112h6q8 59 25 112l221 742h213l-340 -1057h-223l-221 680l-29 115h-4q-12 -61 -29 -115l-217 -680h-225z" />
<glyph unicode="x" horiz-adv-x="1060" d="M45 0l361 543l-340 514h231l197 -322l34 -63h4q18 37 35 63l197 322h233l-342 -514l361 -543h-230l-223 352l-31 60h-4q-16 -33 -30 -60l-222 -352h-231z" />
<glyph unicode="y" horiz-adv-x="1064" d="M4 1057h227l267 -692l39 -127h4q16 72 37 124l256 695h219l-496 -1247q-47 -119 -138 -183.5t-204 -64.5q-51 0 -102.5 16t-77.5 33l-25 14l72 156q57 -45 123 -45q125 0 190 155l51 121z" />
<glyph unicode="z" horiz-adv-x="1079" d="M82 0v117l532 669l88 97v6q-35 -6 -102 -6h-496v174h871v-117l-533 -670l-90 -96v-4q37 4 105 4h538v-174h-913z" />
<glyph unicode="{" horiz-adv-x="731" d="M102 590v178q6 0 18.5 2t43.5 17.5t54.5 38t43 68.5t19.5 107v175q0 94 25.5 163.5t62.5 106.5t88 60.5t88 28.5t73 5l48 -2v-156h-29q-27 0 -51.5 -7t-56 -26.5t-52 -66.5t-20.5 -119v-215q0 -57 -17.5 -105t-42 -77t-49 -48.5t-43.5 -27.5l-16 -6v-4q6 -4 17 -8 t41 -24.5t51.5 -48.5t40 -76t18.5 -109v-240q0 -72 20.5 -119t52 -66.5t56 -26.5t51.5 -7h29v-156q-18 -4 -48 -4q-37 0 -73.5 5t-87.5 29t-88 59.5t-62.5 107.5t-25.5 166v198q0 61 -19.5 106.5t-44 67t-51.5 36t-45 16.5z" />
<glyph unicode="|" horiz-adv-x="589" d="M207 -332v1987h178v-1987h-178z" />
<glyph unicode="}" horiz-adv-x="731" d="M66 -45h28q27 0 51.5 7t56 26.5t52 66.5t20.5 119v240q0 96 42 161.5t85 83.5l41 21v4q-6 2 -17 7t-41 25.5t-51.5 48.5t-40 77t-18.5 106v215q0 72 -20.5 119t-52 66.5t-56 26.5t-51.5 7h-28v156q18 2 47 2q37 0 73.5 -5t88 -28.5t88 -60.5t62.5 -106.5t26 -163.5v-175 q0 -176 141 -225l37 -8v-178q-6 0 -18.5 -2t-43 -17.5t-54.5 -37t-43 -66.5t-19 -107v-198q0 -94 -26 -166t-62.5 -107.5t-88 -59.5t-88 -29t-73.5 -5l-47 4v156z" />
<glyph unicode="~" horiz-adv-x="1269" d="M139 426q0 178 77 265t216 87q74 0 133.5 -31.5t91 -69.5t76.5 -71t98 -33q76 0 108 59.5t32 137.5h166q0 -352 -291 -352q-74 0 -133.5 31.5t-90 69.5t-77.5 70t-101 32q-72 0 -105.5 -58.5t-33.5 -136.5h-166z" />
<glyph unicode="&#xa1;" horiz-adv-x="602" d="M197 -418l14 1069h182l13 -1069h-209zM197 854v203h206v-203h-206z" />
<glyph unicode="&#xa2;" horiz-adv-x="1202" d="M111 737q0 231 118.5 395t321.5 193v174h149v-174q135 -23 236.5 -106.5t155.5 -217.5l-183 -71q-92 207 -278 207q-145 0 -229.5 -112t-84.5 -288q0 -180 82 -288.5t232 -108.5q188 0 278 207l183 -72q-55 -129 -154.5 -218t-237.5 -105v-179h-149v179 q-203 29 -321.5 192.5t-118.5 392.5z" />
<glyph unicode="&#xa3;" horiz-adv-x="1232" d="M117 0v180h127v486h-92v147h92v285q0 172 129 286.5t325 114.5q190 0 338 -123l11 -10l-119 -143q-100 90 -228 90q-113 0 -180 -64.5t-67 -161.5v-274h385v-147h-385v-486h680v-180h-1016z" />
<glyph unicode="&#xa5;" horiz-adv-x="1267" d="M59 1475h236l246 -459l90 -213h4q45 115 90 213l248 459h237l-348 -619h213v-131h-280l-58 -100v-78h338v-131h-338v-416h-209v416h-340v131h340v78l-55 100h-285v131h215z" />
<glyph unicode="&#xa7;" horiz-adv-x="921" d="M100 -23l93 140q86 -78 202 -78q96 0 158.5 57.5t62.5 161.5q0 43 -12 94l-139 787h166l145 -815q12 -55 12 -95q0 -158 -107.5 -258t-285.5 -100q-82 0 -154.5 26.5t-107.5 53.5zM131 1143q0 156 106.5 256t288.5 100q80 0 154 -26.5t108 -51.5l33 -28l-96 -133 q-84 72 -199 71q-98 0 -160.5 -54t-62.5 -157q0 -39 12 -84l142 -805h-166l-148 816q-12 47 -12 96z" />
<glyph unicode="&#xa8;" horiz-adv-x="1040" d="M264 1632v211h166v-211h-166zM612 1632v211h166v-211h-166z" />
<glyph unicode="&#xa9;" horiz-adv-x="1714" d="M113 737.5q0 317.5 216 539.5t525 222q311 0 529.5 -222t218.5 -539.5t-218.5 -540t-529.5 -222.5q-309 0 -525 222.5t-216 540zM266 738q0 -261 170 -441t418 -180q254 0 425 180t171 441t-171 440.5t-425 179.5q-248 0 -418 -179.5t-170 -440.5zM457 735 q0 172 114.5 295t296.5 123q199 0 318 -170l24 -37l-129 -69q-8 16 -23.5 37.5t-68.5 58.5t-115 37q-119 0 -188.5 -81t-69.5 -194q0 -117 69 -195.5t189 -78.5q61 0 113.5 33.5t73.5 64.5l20 35l129 -70q-4 -8 -13 -21.5t-39 -50t-65.5 -64.5t-96 -49.5t-128.5 -21.5 q-182 0 -296.5 122t-114.5 296z" />
<glyph unicode="&#xaa;" horiz-adv-x="880" d="M152 553v119h575v-119h-575zM154 1001q0 229 393 230h20v12q0 131 -133 131q-39 0 -83 -14t-66 -29l-23 -14l-61 102q94 76 252 76q131 0 198.5 -67.5t67.5 -194.5v-420h-141v96h-7q-6 -12 -19 -31.5t-62.5 -49t-108.5 -29.5q-90 0 -158.5 54t-68.5 148zM305 1012 q0 -39 27.5 -64.5t79.5 -25.5q70 0 112.5 57t42.5 129v16h-24q-238 1 -238 -112z" />
<glyph unicode="&#xab;" horiz-adv-x="1161" d="M92 590l342 430h203l-342 -430l342 -428h-203zM512 590l342 430h203l-342 -430l342 -428h-203z" />
<glyph unicode="&#xac;" horiz-adv-x="1282" d="M125 711v161h997v-557h-170v396h-827z" />
<glyph unicode="&#xad;" horiz-adv-x="899" d="M145 506v180h611v-180h-611z" />
<glyph unicode="&#xae;" horiz-adv-x="1714" d="M113 737.5q0 317.5 216 539.5t525 222q311 0 529.5 -222t218.5 -539.5t-218.5 -540t-529.5 -222.5q-309 0 -525 222.5t-216 540zM266 738q0 -261 170 -441t418 -180q254 0 425 180t171 441t-171 440.5t-425 179.5q-248 0 -418 -179.5t-170 -440.5zM600 346v789h303 q113 0 180.5 -65.5t67.5 -174.5q0 -84 -44 -139.5t-99 -69.5v-4q8 -10 26 -45l150 -291h-162l-148 305h-126v-305h-148zM748 760h124q59 0 94 35.5t35 99.5q0 59 -34.5 93t-94.5 34h-124v-262z" />
<glyph unicode="&#xaf;" horiz-adv-x="1040" d="M254 1638v146h534v-146h-534z" />
<glyph unicode="&#xb0;" d="M90 1190q0 129 92 219t223.5 90t224.5 -90t93 -218t-93 -219t-224.5 -91t-223.5 90t-92 219zM250 1190.5q0 -64.5 45 -109.5t110.5 -45t109.5 45t44 109.5t-44 111t-109.5 46.5t-110.5 -46.5t-45 -111z" />
<glyph unicode="&#xb1;" horiz-adv-x="1421" d="M160 514v162h467v514h172v-514h465v-162h-465v-514h-172v514h-467zM193 -199h1038v-161h-1038v161z" />
<glyph unicode="&#xb2;" d="M98 958q0 98 46 175t110.5 123.5t129.5 87t111 89t46 105.5t-43 96t-107 39q-98 -4 -176 -100l-102 94l11 16.5t33.5 36t57.5 45t80 36t104 16.5q129 0 215 -76t86 -197q0 -84 -43 -150.5t-105.5 -109.5t-126 -81t-107.5 -83t-48 -98h445v-139h-611q0 10 -2 25.5t-3 27.5 t-1 22z" />
<glyph unicode="&#xb3;" d="M84 1001l88 111q8 -12 24.5 -29.5t72 -46t116.5 -28.5q68 0 120 46t52 111q0 70 -55.5 110t-128.5 40h-72l-33 78l185 215l51 51v4q-41 -6 -76 -6h-295v139h567v-100l-227 -262q104 -14 174 -83t70 -186q0 -123 -93.5 -213t-232.5 -90q-94 0 -171 35t-107 68z" />
<glyph unicode="&#xb4;" horiz-adv-x="1040" d="M336 1577l153 266h218l-201 -266h-170z" />
<glyph unicode="&#xb5;" horiz-adv-x="1292" d="M174 -418v1475h203v-631q0 -127 40 -194.5t154 -67.5q158 0 252.5 116.5t94.5 280.5v496h202v-1057h-196v143l4 74h-6q-4 -10 -12.5 -25.5t-41 -57.5t-73.5 -74.5t-111 -58.5t-152 -26q-133 2 -190 64h-4q14 -102 14 -162v-295h-178z" />
<glyph unicode="&#x3bc;" horiz-adv-x="1292" d="M174 -418v1475h203v-631q0 -127 40 -194.5t154 -67.5q158 0 252.5 116.5t94.5 280.5v496h202v-1057h-196v143l4 74h-6q-4 -10 -12.5 -25.5t-41 -57.5t-73.5 -74.5t-111 -58.5t-152 -26q-133 2 -190 64h-4q14 -102 14 -162v-295h-178z" />
<glyph unicode="&#xb6;" horiz-adv-x="1230" d="M90 990q0 204 145.5 344.5t348.5 140.5h567v-181h-410v-1398h-155v608q-203 0 -349.5 141t-146.5 345zM870 -104v1280h156v-1280h-156z" />
<glyph unicode="&#xb7;" horiz-adv-x="573" d="M184 500v215h207v-215h-207z" />
<glyph unicode="&#xb8;" horiz-adv-x="1040" d="M356 -297q43 -14 88 -14q100 0 100.5 64.5t-110.5 64.5l-37 -2l60 231l102 -20v-17l-24 -114q68 -8 109.5 -48.5t41.5 -103.5q0 -90 -62.5 -133t-150.5 -43l-117 14v121z" />
<glyph unicode="&#xb9;" d="M135 1581l221 215h144v-774h190v-139h-543v139h195v520l4 53h-4q-8 -18 -37 -45l-74 -71z" />
<glyph unicode="&#xba;" horiz-adv-x="974" d="M129 1153q0 147 103.5 245.5t252.5 98.5q150 0 254.5 -98.5t104.5 -245.5q0 -152 -103.5 -251t-254 -99t-254 99t-103.5 251zM164 553v119h651v-119h-651zM281 1153q0 -94 59 -155.5t147 -61.5q84 0 144.5 61.5t60.5 155.5q0 92 -60.5 151.5t-144.5 59.5 q-88 0 -147 -59.5t-59 -151.5z" />
<glyph unicode="&#xbb;" horiz-adv-x="1163" d="M104 162l342 428l-342 430h203l342 -430l-342 -428h-203zM526 162l342 428l-342 430h203l342 -430l-342 -428h-203z" />
<glyph unicode="&#xbc;" horiz-adv-x="2019" d="M111 1260l221 215h143v-775h189v-139h-541v139h194v521l5 53h-5q-8 -18 -36 -45l-74 -72zM545 0l702 1475h156l-701 -1475h-157zM1190 223v105l420 585h170v-553h127v-137h-127v-223h-154v223h-436zM1362 360h264v258l6 121h-4q-31 -55 -61 -100l-205 -274v-5z" />
<glyph unicode="&#xbd;" horiz-adv-x="2007" d="M111 1260l221 215h143v-775h189v-139h-541v139h194v521l5 53h-5q-8 -18 -36 -45l-74 -72zM549 0l702 1475h156l-700 -1475h-158zM1253 76q0 98 46.5 174t111 123t129 88t110.5 89t46 103q0 59 -43 98.5t-107 39.5q-98 -4 -176 -101l-102 92q4 8 11 18.5t33.5 35t57.5 45 t80 37t104 16.5q129 0 215 -77t86 -198q0 -82 -43 -149.5t-105 -110.5t-124.5 -79.5t-107.5 -81.5t-50 -101h445v-137h-610q0 8 -2.5 23.5t-3.5 29t-1 23.5z" />
<glyph unicode="&#xbe;" horiz-adv-x="2043" d="M84 680l88 111q8 -14 24.5 -31t72 -45.5t116.5 -28.5q68 0 120 45t52 113q0 70 -55.5 108.5t-128.5 38.5h-72l-33 80l185 215l51 51v4q-41 -6 -76 -6h-295v140h567v-101l-227 -262q104 -14 174 -82.5t70 -185.5q0 -123 -93.5 -213t-232.5 -90q-94 0 -171 34.5t-107 67.5z M569 0l703 1475h158l-703 -1475h-158zM1217 223v105l419 585h168v-553h129v-137h-129v-223h-153v223h-434zM1386 360h265v258l6 121h-4q-29 -55 -62 -100l-205 -274v-5z" />
<glyph unicode="&#xbf;" horiz-adv-x="940" d="M82 -59q0 96 37 172.5t92 128t110.5 98.5t92.5 106.5t37 126.5v78h196v-90q0 -86 -37 -159.5t-87 -123t-102 -95.5t-89 -103t-37 -121q0 -88 67.5 -148.5t169.5 -60.5q59 0 119 22.5t88 43.5l31 22l111 -143q-6 -6 -16.5 -14.5t-46.5 -32t-74.5 -41t-99 -31.5t-126.5 -14 q-182 0 -309 105.5t-127 273.5zM446 854v203h207v-203h-207z" />
<glyph unicode="&#xc0;" horiz-adv-x="1310" d="M16 0l531 1475h217l530 -1475h-215l-147 424h-555l-148 -424h-213zM377 1843h217l151 -266h-172zM430 596h447l-162 467l-58 209h-4q-33 -133 -57 -209z" />
<glyph unicode="&#xc1;" horiz-adv-x="1310" d="M16 0l531 1475h217l530 -1475h-215l-147 424h-555l-148 -424h-213zM430 596h447l-162 467l-58 209h-4q-33 -133 -57 -209zM563 1577l154 266h217l-201 -266h-170z" />
<glyph unicode="&#xc2;" horiz-adv-x="1310" d="M16 0l531 1475h217l530 -1475h-215l-147 424h-555l-148 -424h-213zM365 1577l184 266h211l184 -266h-178l-111 168h-4l-108 -168h-178zM430 596h447l-162 467l-58 209h-4q-33 -133 -57 -209z" />
<glyph unicode="&#xc3;" horiz-adv-x="1310" d="M16 0l531 1475h217l530 -1475h-215l-147 424h-555l-148 -424h-213zM305 1579q0 266 213 266q61 0 106.5 -35.5t83 -71.5t72.5 -36q43 0 62.5 41t19.5 96h148q0 -266 -213 -266q-61 0 -107.5 36t-84.5 70.5t-73 34.5q-82 0 -81 -135h-146zM430 596h447l-162 467l-58 209 h-4q-33 -133 -57 -209z" />
<glyph unicode="&#xc4;" horiz-adv-x="1310" d="M16 0l531 1475h217l530 -1475h-215l-147 424h-555l-148 -424h-213zM399 1632v211h166v-211h-166zM430 596h447l-162 467l-58 209h-4q-33 -133 -57 -209zM748 1632v211h167v-211h-167z" />
<glyph unicode="&#xc5;" horiz-adv-x="1310" d="M16 0l531 1475h217l530 -1475h-215l-147 424h-555l-148 -424h-213zM430 596h447l-162 467l-58 209h-4q-33 -133 -57 -209zM479 1706q0 72 52.5 115t125 43t125 -43t52.5 -115q0 -68 -52.5 -111t-125 -43t-125 43t-52.5 111zM588 1706q0 -29 18.5 -48.5t48.5 -19.5 q31 0 50.5 19.5t19.5 48.5q0 35 -19.5 54.5t-50.5 19.5t-49 -19.5t-18 -54.5z" />
<glyph unicode="&#xc6;" horiz-adv-x="1832" d="M8 0l610 1475h1078v-181h-652v-460h531v-181h-531v-473h689v-180h-893v655h-353l-264 -655h-215zM555 827h285v467h-97z" />
<glyph unicode="&#xc7;" horiz-adv-x="1511" d="M104 745q0 322 214 538t536 216q100 0 192.5 -19.5t151.5 -48t105.5 -57t66.5 -49.5l21 -18l-103 -156q-18 18 -54 45t-147.5 72t-224.5 45q-242 0 -393.5 -163t-151.5 -402q0 -242 154 -412t393 -170q123 0 238 48t166 95l53 47l111 -147l-24 -24q-15 -15 -67.5 -53 t-111 -68.5t-150.5 -57t-188 -31.5l-19 -79q68 -8 110 -48.5t42 -103.5q0 -90 -61.5 -133t-151.5 -43l-115 14v121q41 -14 86 -14q100 0 100.5 64.5t-110.5 64.5l-37 -2l41 164q-295 27 -483.5 242.5t-188.5 522.5z" />
<glyph unicode="&#xc8;" horiz-adv-x="1196" d="M201 0v1475h856v-181h-649v-460h528v-181h-528v-473h684v-180h-891zM373 1843h217l151 -266h-172z" />
<glyph unicode="&#xc9;" horiz-adv-x="1196" d="M201 0v1475h856v-181h-649v-460h528v-181h-528v-473h684v-180h-891zM561 1577l154 266h217l-201 -266h-170z" />
<glyph unicode="&#xca;" horiz-adv-x="1196" d="M201 0v1475h856v-181h-649v-460h528v-181h-528v-473h684v-180h-891zM362 1577l185 266h211l184 -266h-178l-111 168h-4l-108 -168h-179z" />
<glyph unicode="&#xcb;" horiz-adv-x="1196" d="M201 0v1475h856v-181h-649v-460h528v-181h-528v-473h684v-180h-891zM395 1632v211h166v-211h-166zM743 1632v211h168v-211h-168z" />
<glyph unicode="&#xcc;" horiz-adv-x="606" d="M25 1843h217l153 -266h-172zM201 0v1475h207v-1475h-207z" />
<glyph unicode="&#xcd;" horiz-adv-x="606" d="M201 0v1475h207v-1475h-207zM215 1577l154 266h217l-201 -266h-170z" />
<glyph unicode="&#xce;" horiz-adv-x="606" d="M14 1577l185 266h211l184 -266h-178l-111 168h-4l-108 -168h-179zM201 0v1475h207v-1475h-207z" />
<glyph unicode="&#xcf;" horiz-adv-x="606" d="M47 1632v211h168v-211h-168zM201 0v1475h207v-1475h-207zM397 1632v211h166v-211h-166z" />
<glyph unicode="&#xd0;" horiz-adv-x="1585" d="M117 651v172h123v652h489q342 0 545 -196t203 -540q0 -346 -203 -542.5t-545 -196.5h-489v651h-123zM446 180h269q252 0 400.5 146.5t148.5 412.5t-148.5 410.5t-400.5 144.5h-269v-471h312v-172h-312v-471z" />
<glyph unicode="&#xd1;" horiz-adv-x="1581" d="M201 0v1475h205l655 -959q25 -35 55.5 -88t48.5 -90l19 -35h4q-14 131 -14 213v959h206v-1475h-202l-658 956q-55 82 -123 215h-4q14 -131 15 -215v-956h-207zM438 1579q0 266 213 266q61 0 107.5 -35.5t83.5 -71.5t73 -36q41 0 61.5 41t20.5 96h146q0 -266 -213 -266 q-61 0 -107.5 36t-83.5 70.5t-73 34.5q-80 0 -80 -135h-148z" />
<glyph unicode="&#xd2;" horiz-adv-x="1714" d="M100 748q0 317 219.5 534t539 217t537.5 -217t218 -534q0 -326 -218 -549.5t-537.5 -223.5t-539 223.5t-219.5 549.5zM313 748q0 -246 159 -414t386 -168t385 168t158 414q0 240 -158 402.5t-385 162.5t-386 -162.5t-159 -402.5zM580 1843h217l151 -266h-172z" />
<glyph unicode="&#xd3;" horiz-adv-x="1714" d="M100 748q0 317 219.5 534t539 217t537.5 -217t218 -534q0 -326 -218 -549.5t-537.5 -223.5t-539 223.5t-219.5 549.5zM313 748q0 -246 159 -414t386 -168t385 168t158 414q0 240 -158 402.5t-385 162.5t-386 -162.5t-159 -402.5zM768 1577l154 266h217l-201 -266h-170z " />
<glyph unicode="&#xd4;" horiz-adv-x="1714" d="M100 748q0 317 219.5 534t539 217t537.5 -217t218 -534q0 -326 -218 -549.5t-537.5 -223.5t-539 223.5t-219.5 549.5zM313 748q0 -246 159 -414t386 -168t385 168t158 414q0 240 -158 402.5t-385 162.5t-386 -162.5t-159 -402.5zM567 1577l185 266h211l184 -266h-178 l-111 168h-4l-109 -168h-178z" />
<glyph unicode="&#xd5;" horiz-adv-x="1714" d="M100 748q0 317 219.5 534t539 217t537.5 -217t218 -534q0 -326 -218 -549.5t-537.5 -223.5t-539 223.5t-219.5 549.5zM313 748q0 -246 159 -414t386 -168t385 168t158 414q0 240 -158 402.5t-385 162.5t-386 -162.5t-159 -402.5zM508 1579q0 266 213 266q59 0 105 -35.5 t84 -71.5t73 -36q43 0 62.5 41t19.5 96h147q0 -266 -213 -266q-61 0 -107 36t-84 70.5t-73 34.5q-82 0 -82 -135h-145z" />
<glyph unicode="&#xd6;" horiz-adv-x="1714" d="M100 748q0 317 219.5 534t539 217t537.5 -217t218 -534q0 -326 -218 -549.5t-537.5 -223.5t-539 223.5t-219.5 549.5zM313 748q0 -246 159 -414t386 -168t385 168t158 414q0 240 -158 402.5t-385 162.5t-386 -162.5t-159 -402.5zM602 1632v211h166v-211h-166zM950 1632 v211h168v-211h-168z" />
<glyph unicode="&#xd7;" horiz-adv-x="1345" d="M131 115l430 481l-430 479l115 115l426 -475l430 475l115 -115l-435 -479l435 -481l-115 -115l-430 475l-426 -475z" />
<glyph unicode="&#xd8;" horiz-adv-x="1720" d="M104 748q0 317 219.5 534t538.5 217q209 0 387 -102l97 133l102 -72l-96 -133q125 -104 195.5 -253.5t70.5 -323.5q0 -326 -218 -549.5t-538 -223.5q-221 0 -401 111l-99 -139l-104 71l102 146q-121 106 -188.5 257t-67.5 327zM317 748q0 -250 164 -420l654 909 q-123 76 -273 76q-227 0 -386 -162.5t-159 -402.5zM580 246q127 -80 282 -80q227 0 385 168t158 414q0 254 -170 413z" />
<glyph unicode="&#xd9;" horiz-adv-x="1519" d="M180 522v953h207v-953q0 -168 100.5 -262t270.5 -94q174 0 275.5 94t101.5 266v949h206v-953q0 -244 -160.5 -395.5t-419.5 -151.5t-420 151.5t-161 395.5zM481 1843h217l152 -266h-170z" />
<glyph unicode="&#xda;" horiz-adv-x="1519" d="M180 522v953h207v-953q0 -168 100.5 -262t270.5 -94q174 0 275.5 94t101.5 266v949h206v-953q0 -244 -160.5 -395.5t-419.5 -151.5t-420 151.5t-161 395.5zM668 1577l153 266h217l-200 -266h-170z" />
<glyph unicode="&#xdb;" horiz-adv-x="1519" d="M180 522v953h207v-953q0 -168 100.5 -262t270.5 -94q174 0 275.5 94t101.5 266v949h206v-953q0 -244 -160.5 -395.5t-419.5 -151.5t-420 151.5t-161 395.5zM471 1577l182 266h211l185 -266h-179l-110 168h-4l-109 -168h-176z" />
<glyph unicode="&#xdc;" horiz-adv-x="1519" d="M180 522v953h207v-953q0 -168 100.5 -262t270.5 -94q174 0 275.5 94t101.5 266v949h206v-953q0 -244 -160.5 -395.5t-419.5 -151.5t-420 151.5t-161 395.5zM504 1632v211h166v-211h-166zM852 1632v211h168v-211h-168z" />
<glyph unicode="&#xdd;" horiz-adv-x="1226" d="M16 1475h234l274 -486l90 -184h4q43 102 91 184l268 486h235l-493 -850v-625h-207v625zM524 1577l152 266h219l-201 -266h-170z" />
<glyph unicode="&#xde;" horiz-adv-x="1267" d="M201 0v1475h205v-250h333q205 0 333 -127t128 -336t-129 -338t-334 -129h-331v-295h-205zM406 475h301q133 0 208.5 77t75.5 210t-75.5 207.5t-206.5 74.5h-303v-569z" />
<glyph unicode="&#xdf;" horiz-adv-x="1226" d="M160 0v1108q0 182 133 286.5t317 104.5q170 0 284 -96t114 -240q0 -70 -33 -129t-73 -94t-71.5 -79t-31.5 -87q0 -35 37.5 -72.5t93 -74.5t110 -80t93 -106.5t38.5 -137.5q0 -152 -104 -234.5t-252 -82.5q-86 0 -159.5 14t-106.5 29l-31 16v180q117 -63 273 -63 q74 0 124 37t50 112q0 57 -58.5 112.5t-128 95.5t-128 107.5t-58.5 141.5q0 59 32.5 113.5t71.5 91.5t73 88t34 100q0 68 -52.5 116t-146.5 48q-100 0 -172 -60.5t-72 -172.5v-1092h-200z" />
<glyph unicode="&#xe0;" horiz-adv-x="1101" d="M74 297q0 362 637 362h45v21q0 231 -232 231q-160 -2 -295 -102l-84 147q18 14 50 36t134.5 55.5t211.5 33.5q201 0 309 -106.5t108 -306.5v-668h-188v100l4 84h-4q-4 -8 -11 -23.5t-35 -50t-62.5 -62.5t-96 -50.5t-133.5 -22.5q-145 0 -251.5 85t-106.5 237zM270 1475 h217l152 -265h-172zM279 307q0 -70 52 -120t146 -50q121 0 201 105.5t80 232.5v33h-51q-428 0 -428 -201z" />
<glyph unicode="&#xe1;" horiz-adv-x="1101" d="M74 297q0 362 637 362h45v21q0 231 -232 231q-160 -2 -295 -102l-84 147q18 14 50 36t134.5 55.5t211.5 33.5q201 0 309 -106.5t108 -306.5v-668h-188v100l4 84h-4q-4 -8 -11 -23.5t-35 -50t-62.5 -62.5t-96 -50.5t-133.5 -22.5q-145 0 -251.5 85t-106.5 237zM279 307 q0 -70 52 -120t146 -50q121 0 201 105.5t80 232.5v33h-51q-428 0 -428 -201zM455 1210l153 265h217l-200 -265h-170z" />
<glyph unicode="&#xe2;" horiz-adv-x="1101" d="M74 297q0 362 637 362h45v21q0 231 -232 231q-160 -2 -295 -102l-84 147q18 14 50 36t134.5 55.5t211.5 33.5q201 0 309 -106.5t108 -306.5v-668h-188v100l4 84h-4q-4 -8 -11 -23.5t-35 -50t-62.5 -62.5t-96 -50.5t-133.5 -22.5q-145 0 -251.5 85t-106.5 237zM256 1210 l184 265h211l185 -265h-179l-110 166h-4l-109 -166h-178zM279 307q0 -70 52 -120t146 -50q121 0 201 105.5t80 232.5v33h-51q-428 0 -428 -201z" />
<glyph unicode="&#xe3;" horiz-adv-x="1101" d="M74 297q0 362 637 362h45v21q0 231 -232 231q-160 -2 -295 -102l-84 147q18 14 50 36t134.5 55.5t211.5 33.5q201 0 309 -106.5t108 -306.5v-668h-188v100l4 84h-4q-4 -8 -11 -23.5t-35 -50t-62.5 -62.5t-96 -50.5t-133.5 -22.5q-145 0 -251.5 85t-106.5 237zM197 1212 q0 264 213 265q61 0 106 -36t83 -71t73 -35q43 0 62.5 41t19.5 94h147q0 -264 -213 -264q-61 0 -107 35t-84 71t-73 36q-82 0 -82 -136h-145zM279 307q0 -70 52 -120t146 -50q121 0 201 105.5t80 232.5v33h-51q-428 0 -428 -201z" />
<glyph unicode="&#xe4;" horiz-adv-x="1101" d="M74 297q0 362 637 362h45v21q0 231 -232 231q-160 -2 -295 -102l-84 147q18 14 50 36t134.5 55.5t211.5 33.5q201 0 309 -106.5t108 -306.5v-668h-188v100l4 84h-4q-4 -8 -11 -23.5t-35 -50t-62.5 -62.5t-96 -50.5t-133.5 -22.5q-145 0 -251.5 85t-106.5 237zM279 307 q0 -70 52 -120t146 -50q121 0 201 105.5t80 232.5v33h-51q-428 0 -428 -201zM291 1264v211h166v-211h-166zM639 1264v211h168v-211h-168z" />
<glyph unicode="&#xe5;" horiz-adv-x="1101" d="M74 297q0 362 637 362h45v21q0 231 -232 231q-160 -2 -295 -102l-84 147q18 14 50 36t134.5 55.5t211.5 33.5q201 0 309 -106.5t108 -306.5v-668h-188v100l4 84h-4q-4 -8 -11 -23.5t-35 -50t-62.5 -62.5t-96 -50.5t-133.5 -22.5q-145 0 -251.5 85t-106.5 237zM279 307 q0 -70 52 -120t146 -50q121 0 201 105.5t80 232.5v33h-51q-428 0 -428 -201zM371 1339q0 70 52 113t125 43t125 -43t52 -113t-52 -112.5t-125 -42.5t-125 42.5t-52 112.5zM479 1339q0 -29 18.5 -49t49.5 -20t50 20.5t19 48.5q0 33 -19 53.5t-50 20.5t-49.5 -20.5 t-18.5 -53.5z" />
<glyph unicode="&#xe6;" horiz-adv-x="1804" d="M76 297q0 94 46 163.5t111.5 106.5t158.5 59.5t164 27.5t151 5h51v21q0 231 -238 231q-72 0 -143.5 -25.5t-108.5 -49.5l-39 -27l-82 147q6 4 18.5 13.5t49.5 31t79 38t107.5 29.5t133.5 13q266 0 350 -184h6q125 184 385 184q207 0 323.5 -144t116.5 -370l-4 -59h-758 q8 -174 105.5 -266t247.5 -92q80 0 158.5 30.5t115.5 61.5l37 30l84 -147q-16 -16 -50 -41t-140.5 -67t-217.5 -42q-156 0 -272.5 70t-181.5 195h-4q-10 -29 -34 -66t-69 -86t-123 -81t-174 -32q-152 0 -256 86t-104 236zM283 307q0 -72 51 -121t147 -49q123 0 201 105.5 t78 234.5v31h-98q-379 0 -379 -201zM963 659h548q-4 129 -74.5 196t-174.5 67q-119 0 -199 -66t-100 -197z" />
<glyph unicode="&#xe7;" horiz-adv-x="1142" d="M86 528q0 236 160 394.5t405 158.5q117 0 216.5 -37.5t140.5 -78.5l41 -37l-97 -142q-12 12 -35.5 33t-100.5 54.5t-157 33.5q-158 0 -262 -106.5t-104 -269t105.5 -272t267.5 -109.5q88 0 170 35.5t118 70.5l37 37l82 -150l-16 -16q-10 -10 -48 -38t-81 -50.5 t-110.5 -42t-141.5 -21.5l-17 -79q68 -8 110 -48.5t42 -103.5q0 -90 -61.5 -133t-151.5 -43l-115 14v121q41 -14 86 -14q100 0 100.5 64.5t-110.5 64.5l-37 -2l41 166q-213 29 -345 179t-132 367z" />
<glyph unicode="&#xe8;" horiz-adv-x="1159" d="M86 528q0 248 149.5 400.5t378.5 152.5q215 0 336 -139t121 -354l-6 -88h-770q8 -168 111.5 -259t250.5 -91q168 0 306 118l8 6l84 -149q-16 -16 -50 -41t-140.5 -67t-219.5 -42q-246 0 -402.5 157.5t-156.5 395.5zM301 651h563q-4 131 -75.5 201t-178.5 70 q-119 0 -204 -72t-105 -199zM336 1475h217l154 -265h-172z" />
<glyph unicode="&#xe9;" horiz-adv-x="1159" d="M86 528q0 248 149.5 400.5t378.5 152.5q215 0 336 -139t121 -354l-6 -88h-770q8 -168 111.5 -259t250.5 -91q168 0 306 118l8 6l84 -149q-16 -16 -50 -41t-140.5 -67t-219.5 -42q-246 0 -402.5 157.5t-156.5 395.5zM301 651h563q-4 131 -75.5 201t-178.5 70 q-119 0 -204 -72t-105 -199zM524 1210l152 265h219l-201 -265h-170z" />
<glyph unicode="&#xea;" horiz-adv-x="1159" d="M86 528q0 248 149.5 400.5t378.5 152.5q215 0 336 -139t121 -354l-6 -88h-770q8 -168 111.5 -259t250.5 -91q168 0 306 118l8 6l84 -149q-16 -16 -50 -41t-140.5 -67t-219.5 -42q-246 0 -402.5 157.5t-156.5 395.5zM301 651h563q-4 131 -75.5 201t-178.5 70 q-119 0 -204 -72t-105 -199zM324 1210l184 265h211l184 -265h-178l-111 166h-4l-108 -166h-178z" />
<glyph unicode="&#xeb;" horiz-adv-x="1159" d="M86 528q0 248 149.5 400.5t378.5 152.5q215 0 336 -139t121 -354l-6 -88h-770q8 -168 111.5 -259t250.5 -91q168 0 306 118l8 6l84 -149q-16 -16 -50 -41t-140.5 -67t-219.5 -42q-246 0 -402.5 157.5t-156.5 395.5zM301 651h563q-4 131 -75.5 201t-178.5 70 q-119 0 -204 -72t-105 -199zM356 1264v211h168v-211h-168zM707 1264v211h165v-211h-165z" />
<glyph unicode="&#xec;" horiz-adv-x="518" d="M-18 1475h217l151 -265h-170zM160 0v1057h200v-1057h-200z" />
<glyph unicode="&#xed;" horiz-adv-x="518" d="M160 0v1057h200v-1057h-200zM172 1210l152 265h217l-201 -265h-168z" />
<glyph unicode="&#xee;" horiz-adv-x="518" d="M-27 1210l183 265h213l182 -265h-176l-111 166h-6l-108 -166h-177zM160 0v1057h200v-1057h-200z" />
<glyph unicode="&#xef;" horiz-adv-x="518" d="M4 1264v211h168v-211h-168zM160 0v1057h200v-1057h-200zM352 1264v211h168v-211h-168z" />
<glyph unicode="&#xf0;" horiz-adv-x="1228" d="M90 492q0 197 132 339t364 142q160 -2 256 -88h4q-63 168 -228 278l-378 -166l-21 129l260 115q-129 66 -270 96l57 164q242 -53 432 -166l289 127l21 -127l-193 -88q301 -250 301 -674q0 -111 -30.5 -213t-91 -190t-167 -141.5t-241.5 -53.5q-229 0 -362.5 154 t-133.5 363zM295 487q0 -139 78 -238t217 -99q80 0 144.5 34.5t100 93t55 124t19.5 137.5q0 119 -80.5 195.5t-214.5 76.5q-154 0 -236.5 -95.5t-82.5 -228.5z" />
<glyph unicode="&#xf1;" horiz-adv-x="1259" d="M160 0v1057h194v-139l-4 -78h4q43 90 143.5 165.5t254.5 75.5q365 0 364 -405v-676h-203v631q0 127 -42 196.5t-158 69.5q-119 0 -210 -72.5t-124 -187.5q-18 -55 -19 -141v-496h-200zM303 1212q0 264 213 265q61 0 106.5 -36t83 -71t72.5 -35q43 0 62.5 41t19.5 94h148 q0 -264 -213 -264q-61 0 -107.5 35t-84.5 71t-73 36q-82 0 -81 -136h-146z" />
<glyph unicode="&#xf2;" horiz-adv-x="1302" d="M82 530.5q0 237.5 165 394t405.5 156.5t405.5 -156.5t165 -394t-166 -396.5t-404.5 -159t-404.5 159t-166 396.5zM289 531.5q0 -162.5 106.5 -272t255.5 -109.5q154 0 259.5 107.5t105.5 272.5q0 164 -105.5 270.5t-259.5 106.5q-150 0 -256 -106.5t-106 -269zM373 1475 h217l151 -265h-172z" />
<glyph unicode="&#xf3;" horiz-adv-x="1302" d="M82 530.5q0 237.5 165 394t405.5 156.5t405.5 -156.5t165 -394t-166 -396.5t-404.5 -159t-404.5 159t-166 396.5zM289 531.5q0 -162.5 106.5 -272t255.5 -109.5q154 0 259.5 107.5t105.5 272.5q0 164 -105.5 270.5t-259.5 106.5q-150 0 -256 -106.5t-106 -269zM561 1210 l154 265h217l-201 -265h-170z" />
<glyph unicode="&#xf4;" horiz-adv-x="1302" d="M82 530.5q0 237.5 165 394t405.5 156.5t405.5 -156.5t165 -394t-166 -396.5t-404.5 -159t-404.5 159t-166 396.5zM289 531.5q0 -162.5 106.5 -272t255.5 -109.5q154 0 259.5 107.5t105.5 272.5q0 164 -105.5 270.5t-259.5 106.5q-150 0 -256 -106.5t-106 -269zM362 1210 l185 265h211l184 -265h-178l-111 166h-4l-108 -166h-179z" />
<glyph unicode="&#xf5;" horiz-adv-x="1302" d="M82 530.5q0 237.5 165 394t405.5 156.5t405.5 -156.5t165 -394t-166 -396.5t-404.5 -159t-404.5 159t-166 396.5zM289 531.5q0 -162.5 106.5 -272t255.5 -109.5q154 0 259.5 107.5t105.5 272.5q0 164 -105.5 270.5t-259.5 106.5q-150 0 -256 -106.5t-106 -269zM301 1212 q0 264 213 265q59 0 105.5 -36t84 -71t72.5 -35q43 0 62.5 41t19.5 94h148q0 -264 -213 -264q-61 0 -107.5 35t-84.5 71t-73 36q-82 0 -82 -136h-145z" />
<glyph unicode="&#xf6;" horiz-adv-x="1302" d="M82 530.5q0 237.5 165 394t405.5 156.5t405.5 -156.5t165 -394t-166 -396.5t-404.5 -159t-404.5 159t-166 396.5zM289 531.5q0 -162.5 106.5 -272t255.5 -109.5q154 0 259.5 107.5t105.5 272.5q0 164 -105.5 270.5t-259.5 106.5q-150 0 -256 -106.5t-106 -269zM395 1264 v211h166v-211h-166zM743 1264v211h168v-211h-168z" />
<glyph unicode="&#xf7;" horiz-adv-x="1325" d="M135 514v162h1055v-162h-1055zM563 92v191h197v-191h-197zM563 909v191h197v-191h-197z" />
<glyph unicode="&#xf8;" horiz-adv-x="1302" d="M82 530q0 238 165 394.5t404 156.5q152 0 283 -67l84 114l98 -71l-82 -113q188 -162 189 -414q0 -238 -166 -396.5t-406 -158.5q-139 0 -266 60l-82 -115l-100 74l78 108q-199 162 -199 428zM289 531.5q0 -162.5 104 -273.5l434 604q-84 45 -176 45q-150 0 -256 -106.5 t-106 -269zM494 186q74 -37 157 -36q154 0 259.5 107.5t105.5 272.5q0 152 -94 256z" />
<glyph unicode="&#xf9;" horiz-adv-x="1247" d="M143 381v676h203v-631q0 -127 41 -194.5t158 -67.5q156 0 250 116.5t94 280.5v496h201v-1057h-195v139l4 78h-4q-41 -92 -144.5 -167t-244.5 -75q-363 0 -363 406zM338 1475h217l154 -265h-172z" />
<glyph unicode="&#xfa;" horiz-adv-x="1247" d="M143 381v676h203v-631q0 -127 41 -194.5t158 -67.5q156 0 250 116.5t94 280.5v496h201v-1057h-195v139l4 78h-4q-41 -92 -144.5 -167t-244.5 -75q-363 0 -363 406zM526 1210l154 265h217l-201 -265h-170z" />
<glyph unicode="&#xfb;" horiz-adv-x="1247" d="M143 381v676h203v-631q0 -127 41 -194.5t158 -67.5q156 0 250 116.5t94 280.5v496h201v-1057h-195v139l4 78h-4q-41 -92 -144.5 -167t-244.5 -75q-363 0 -363 406zM328 1210l184 265h211l184 -265h-178l-111 166h-4l-108 -166h-178z" />
<glyph unicode="&#xfc;" horiz-adv-x="1247" d="M143 381v676h203v-631q0 -127 41 -194.5t158 -67.5q156 0 250 116.5t94 280.5v496h201v-1057h-195v139l4 78h-4q-41 -92 -144.5 -167t-244.5 -75q-363 0 -363 406zM360 1264v211h168v-211h-168zM711 1264v211h166v-211h-166z" />
<glyph unicode="&#xfd;" horiz-adv-x="1064" d="M4 1057h227l267 -692l39 -127h4q16 72 37 124l256 695h219l-496 -1247q-47 -119 -138 -183.5t-204 -64.5q-51 0 -102.5 16t-77.5 33l-25 14l72 156q57 -45 123 -45q125 0 190 155l51 121zM449 1210l153 265h217l-201 -265h-169z" />
<glyph unicode="&#xfe;" horiz-adv-x="1253" d="M160 -418v1893h200v-480l-2 -88h4q2 2 19.5 22.5t31 36t44 39t61.5 39t78 26.5t100 11q213 0 341 -154.5t128 -398t-132 -398.5t-343 -155q-68 0 -127 17.5t-95 44t-60.5 51.5t-34.5 41l-13 18h-4q4 -37 4 -90v-475h-200zM354 526q0 -166 83 -271t220 -105q131 0 216 104 t85 274q0 168 -80.5 273.5t-215.5 105.5q-131 0 -219.5 -94t-88.5 -287z" />
<glyph unicode="&#xff;" horiz-adv-x="1064" d="M4 1057h227l267 -692l39 -127h4q16 72 37 124l256 695h219l-496 -1247q-47 -119 -138 -183.5t-204 -64.5q-51 0 -102.5 16t-77.5 33l-25 14l72 156q57 -45 123 -45q125 0 190 155l51 121zM283 1264v211h166v-211h-166zM631 1264v211h168v-211h-168z" />
<glyph unicode="&#x100;" horiz-adv-x="1310" d="M16 0l531 1475h217l530 -1475h-215l-147 424h-555l-148 -424h-213zM391 1638v146h533v-146h-533zM430 596h447l-162 467l-58 209h-4q-33 -133 -57 -209z" />
<glyph unicode="&#x101;" horiz-adv-x="1101" d="M74 297q0 362 637 362h45v21q0 231 -232 231q-160 -2 -295 -102l-84 147q18 14 50 36t134.5 55.5t211.5 33.5q201 0 309 -106.5t108 -306.5v-668h-188v100l4 84h-4q-4 -8 -11 -23.5t-35 -50t-62.5 -62.5t-96 -50.5t-133.5 -22.5q-145 0 -251.5 85t-106.5 237zM279 307 q0 -70 52 -120t146 -50q121 0 201 105.5t80 232.5v33h-51q-428 0 -428 -201zM283 1270v147h532v-147h-532z" />
<glyph unicode="&#x102;" horiz-adv-x="1310" d="M16 0l531 1475h217l530 -1475h-215l-147 424h-555l-148 -424h-213zM381 1812v31h149v-28q0 -61 37 -93t88 -32t87 32.5t36 94.5v26h152v-31q0 -115 -81 -179t-194 -64q-115 0 -194.5 64t-79.5 179zM430 596h447l-162 467l-58 209h-4q-33 -133 -57 -209z" />
<glyph unicode="&#x103;" horiz-adv-x="1101" d="M74 297q0 362 637 362h45v21q0 231 -232 231q-160 -2 -295 -102l-84 147q18 14 50 36t134.5 55.5t211.5 33.5q201 0 309 -106.5t108 -306.5v-668h-188v100l4 84h-4q-4 -8 -11 -23.5t-35 -50t-62.5 -62.5t-96 -50.5t-133.5 -22.5q-145 0 -251.5 85t-106.5 237zM272 1446 v29h150v-27q0 -63 37 -94t88 -31t87 31.5t36 95.5v25h151v-29q0 -115 -81 -180.5t-193 -65.5q-115 0 -195 65.5t-80 180.5zM279 307q0 -70 52 -120t146 -50q121 0 201 105.5t80 232.5v33h-51q-428 0 -428 -201z" />
<glyph unicode="&#x104;" horiz-adv-x="1310" d="M16 0l531 1475h217l530 -1475q-133 -113 -133 -186q0 -35 30 -57.5t58 -28.5l27 -4l-47 -156q-10 0 -26.5 3t-57.5 15.5t-74 33t-59.5 58t-26.5 89.5q0 115 145 229v4h-51l-147 424h-555l-148 -424h-213zM430 596h447l-162 467l-58 209h-4q-33 -133 -57 -209z" />
<glyph unicode="&#x105;" horiz-adv-x="1101" d="M74 297q0 362 637 362h45v21q0 231 -232 231q-160 -2 -295 -102l-84 147q18 14 50 36t134.5 55.5t211.5 33.5q201 0 309 -106.5t108 -306.5v-668q-133 -113 -133 -186q0 -35 28 -57.5t58 -28.5l29 -4l-47 -156q-12 0 -27.5 3t-57.5 15.5t-74 33t-58.5 58t-26.5 89.5 q0 109 121 210v123l4 84h-4q-4 -8 -11 -23.5t-35 -50t-62.5 -62.5t-96 -50.5t-133.5 -22.5q-145 0 -251.5 85t-106.5 237zM279 307q0 -70 52 -120t146 -50q121 0 201 105.5t80 232.5v33h-51q-428 0 -428 -201z" />
<glyph unicode="&#x106;" horiz-adv-x="1507" d="M100 745q0 322 214 538t536 216q100 0 192.5 -19.5t151.5 -48t105.5 -57t66.5 -49.5l20 -18l-102 -156q-18 18 -54 45t-147.5 72t-224.5 45q-242 0 -393.5 -163t-151.5 -402q0 -242 154 -412t393 -170q123 0 237.5 48t166.5 95l53 47l110 -147q-8 -10 -24.5 -25.5 t-71.5 -55.5t-116.5 -71.5t-159 -56.5t-201.5 -25q-328 0 -541 221t-213 549zM743 1577l154 266h217l-201 -266h-170z" />
<glyph unicode="&#x107;" horiz-adv-x="1140" d="M84 528q0 236 159.5 394.5t405.5 158.5q117 0 216.5 -37.5t142.5 -78.5l39 -37l-97 -142q-12 12 -35.5 33t-100.5 54.5t-157 33.5q-158 0 -262 -106.5t-104 -269t105.5 -272t267.5 -109.5q88 0 169.5 35.5t118.5 70.5l37 37l82 -150l-17 -17q-11 -11 -51 -40t-86.5 -51.5 t-118 -41t-149.5 -18.5q-248 0 -406.5 156.5t-158.5 396.5zM520 1210l152 265h219l-201 -265h-170z" />
<glyph unicode="&#x108;" horiz-adv-x="1507" d="M100 745q0 322 214 538t536 216q100 0 192.5 -19.5t151.5 -48t105.5 -57t66.5 -49.5l20 -18l-102 -156q-18 18 -54 45t-147.5 72t-224.5 45q-242 0 -393.5 -163t-151.5 -402q0 -242 154 -412t393 -170q123 0 237.5 48t166.5 95l53 47l110 -147q-8 -10 -24.5 -25.5 t-71.5 -55.5t-116.5 -71.5t-159 -56.5t-201.5 -25q-328 0 -541 221t-213 549zM545 1577l184 266h211l184 -266h-178l-110 168h-5l-108 -168h-178z" />
<glyph unicode="&#x109;" horiz-adv-x="1140" d="M84 528q0 236 159.5 394.5t405.5 158.5q117 0 216.5 -37.5t142.5 -78.5l39 -37l-97 -142q-12 12 -35.5 33t-100.5 54.5t-157 33.5q-158 0 -262 -106.5t-104 -269t105.5 -272t267.5 -109.5q88 0 169.5 35.5t118.5 70.5l37 37l82 -150l-17 -17q-11 -11 -51 -40t-86.5 -51.5 t-118 -41t-149.5 -18.5q-248 0 -406.5 156.5t-158.5 396.5zM322 1210l184 265h211l184 -265h-178l-111 166h-4l-108 -166h-178z" />
<glyph unicode="&#x10a;" horiz-adv-x="1507" d="M100 745q0 322 214 538t536 216q100 0 192.5 -19.5t151.5 -48t105.5 -57t66.5 -49.5l20 -18l-102 -156q-18 18 -54 45t-147.5 72t-224.5 45q-242 0 -393.5 -163t-151.5 -402q0 -242 154 -412t393 -170q123 0 237.5 48t166.5 95l53 47l110 -147q-8 -10 -24.5 -25.5 t-71.5 -55.5t-116.5 -71.5t-159 -56.5t-201.5 -25q-328 0 -541 221t-213 549zM743 1638v205h183v-205h-183z" />
<glyph unicode="&#x10b;" horiz-adv-x="1140" d="M84 528q0 236 159.5 394.5t405.5 158.5q117 0 216.5 -37.5t142.5 -78.5l39 -37l-97 -142q-12 12 -35.5 33t-100.5 54.5t-157 33.5q-158 0 -262 -106.5t-104 -269t105.5 -272t267.5 -109.5q88 0 169.5 35.5t118.5 70.5l37 37l82 -150l-17 -17q-11 -11 -51 -40t-86.5 -51.5 t-118 -41t-149.5 -18.5q-248 0 -406.5 156.5t-158.5 396.5zM520 1270v205h182v-205h-182z" />
<glyph unicode="&#x10c;" horiz-adv-x="1507" d="M100 745q0 322 214 538t536 216q100 0 192.5 -19.5t151.5 -48t105.5 -57t66.5 -49.5l20 -18l-102 -156q-18 18 -54 45t-147.5 72t-224.5 45q-242 0 -393.5 -163t-151.5 -402q0 -242 154 -412t393 -170q123 0 237.5 48t166.5 95l53 47l110 -147q-8 -10 -24.5 -25.5 t-71.5 -55.5t-116.5 -71.5t-159 -56.5t-201.5 -25q-328 0 -541 221t-213 549zM545 1843h178l108 -170h5l110 170h178l-184 -266h-211z" />
<glyph unicode="&#x10d;" horiz-adv-x="1140" d="M84 528q0 236 159.5 394.5t405.5 158.5q117 0 216.5 -37.5t142.5 -78.5l39 -37l-97 -142q-12 12 -35.5 33t-100.5 54.5t-157 33.5q-158 0 -262 -106.5t-104 -269t105.5 -272t267.5 -109.5q88 0 169.5 35.5t118.5 70.5l37 37l82 -150l-17 -17q-11 -11 -51 -40t-86.5 -51.5 t-118 -41t-149.5 -18.5q-248 0 -406.5 156.5t-158.5 396.5zM322 1475h178l108 -168h4l111 168h178l-184 -265h-211z" />
<glyph unicode="&#x10e;" horiz-adv-x="1544" d="M201 0v1475h489q342 0 545 -196t203 -540q0 -346 -203 -542.5t-545 -196.5h-489zM408 180h266q254 0 402.5 146.5t148.5 412.5t-148.5 410.5t-402.5 144.5h-266v-1114zM430 1843h178l109 -170h4l110 170h179l-185 -266h-211z" />
<glyph unicode="&#x10f;" horiz-adv-x="1316" d="M90 528q0 250 133 401.5t344 151.5q70 0 128.5 -16t93 -41t60 -50.5t36.5 -41.5l10 -17h4q-4 31 -4 70v490h203v-1475h-193v100l2 72h-4q-4 -8 -12 -21.5t-36 -47t-64.5 -60.5t-99 -47.5t-136.5 -20.5q-213 0 -339 152.5t-126 400.5zM297 528q0 -172 82 -275t217 -103 q129 0 217 95t88 285q0 154 -79 265.5t-220 111.5q-129 0 -217 -101.5t-88 -277.5zM1204 1171q39 113 39 175.5t-24 128.5h176q14 -55 14 -107q0 -86 -51 -197h-154z" />
<glyph unicode="&#x110;" horiz-adv-x="1585" d="M117 651v172h123v652h489q342 0 545 -196t203 -540q0 -346 -203 -542.5t-545 -196.5h-489v651h-123zM446 180h269q252 0 400.5 146.5t148.5 412.5t-148.5 410.5t-400.5 144.5h-269v-471h312v-172h-312v-471z" />
<glyph unicode="&#x111;" horiz-adv-x="1255" d="M90 528q0 250 133 401.5t344 151.5q70 0 128.5 -16t93 -41t60 -50.5t36.5 -41.5l10 -17h4q-4 31 -4 70v191h-272v133h272v166h203v-166h157v-133h-157v-1176h-193v100l2 72h-4q-4 -8 -12 -21.5t-36 -47t-64.5 -60.5t-99 -47.5t-136.5 -20.5q-213 0 -339 152.5t-126 400.5 zM297 528q0 -172 82 -275t217 -103q129 0 217 95t88 285q0 154 -79 265.5t-220 111.5q-129 0 -217 -101.5t-88 -277.5z" />
<glyph unicode="&#x112;" horiz-adv-x="1196" d="M201 0v1475h856v-181h-649v-460h528v-181h-528v-473h684v-180h-891zM387 1638v146h533v-146h-533z" />
<glyph unicode="&#x113;" horiz-adv-x="1159" d="M86 528q0 248 149.5 400.5t378.5 152.5q215 0 336 -139t121 -354l-6 -88h-770q8 -168 111.5 -259t250.5 -91q168 0 306 118l8 6l84 -149q-16 -16 -50 -41t-140.5 -67t-219.5 -42q-246 0 -402.5 157.5t-156.5 395.5zM301 651h563q-4 131 -75.5 201t-178.5 70 q-119 0 -204 -72t-105 -199zM348 1270v147h533v-147h-533z" />
<glyph unicode="&#x114;" horiz-adv-x="1196" d="M201 0v1475h856v-181h-649v-460h528v-181h-528v-473h684v-180h-891zM377 1812v31h149v-28q0 -61 37 -93t88 -32t87 32.5t36 94.5v26h152v-31q0 -115 -81 -179t-194 -64q-115 0 -194.5 64t-79.5 179z" />
<glyph unicode="&#x115;" horiz-adv-x="1159" d="M86 528q0 248 149.5 400.5t378.5 152.5q215 0 336 -139t121 -354l-6 -88h-770q8 -168 111.5 -259t250.5 -91q168 0 306 118l8 6l84 -149q-16 -16 -50 -41t-140.5 -67t-219.5 -42q-246 0 -402.5 157.5t-156.5 395.5zM301 651h563q-4 131 -75.5 201t-178.5 70 q-119 0 -204 -72t-105 -199zM338 1446v29h151v-27q0 -63 36 -94t89 -31q49 0 86 31.5t37 95.5v25h152v-29q0 -115 -81 -180.5t-194 -65.5q-115 0 -195.5 65.5t-80.5 180.5z" />
<glyph unicode="&#x116;" horiz-adv-x="1196" d="M201 0v1475h856v-181h-649v-460h528v-181h-528v-473h684v-180h-891zM559 1638v205h182v-205h-182z" />
<glyph unicode="&#x117;" horiz-adv-x="1159" d="M86 528q0 248 149.5 400.5t378.5 152.5q215 0 336 -139t121 -354l-6 -88h-770q8 -168 111.5 -259t250.5 -91q168 0 306 118l8 6l84 -149q-16 -16 -50 -41t-140.5 -67t-219.5 -42q-246 0 -402.5 157.5t-156.5 395.5zM301 651h563q-4 131 -75.5 201t-178.5 70 q-119 0 -204 -72t-105 -199zM522 1270v205h183v-205h-183z" />
<glyph unicode="&#x118;" horiz-adv-x="1196" d="M201 0v1475h856v-181h-649v-460h528v-181h-528v-473h684v-180q-133 -113 -134 -186q0 -35 29 -57.5t57 -28.5l29 -4l-47 -156q-10 0 -26.5 3t-57.5 15.5t-73.5 33t-59.5 58t-27 89.5q0 115 146 229v4h-727z" />
<glyph unicode="&#x119;" horiz-adv-x="1161" d="M86 528q0 248 149.5 400.5t378.5 152.5q215 0 336 -139t121 -354l-6 -88h-770q8 -168 111.5 -259t250.5 -91q168 0 306 118l8 6l84 -149q-23 -20 -77 -61t-95 -72t-76 -80t-35 -98q0 -35 29.5 -57.5t58.5 -28.5l31 -4l-49 -156q-10 0 -25.5 3t-57.5 15.5t-75 33t-58.5 58 t-25.5 89.5q0 106 117 210v5q-35 -6 -72 -7q-246 0 -402.5 157.5t-156.5 395.5zM301 651h563q-4 131 -75.5 201t-178.5 70q-119 0 -204 -72t-105 -199z" />
<glyph unicode="&#x11a;" horiz-adv-x="1196" d="M201 0v1475h856v-181h-649v-460h528v-181h-528v-473h684v-180h-891zM362 1843h179l108 -170h4l111 170h178l-184 -266h-211z" />
<glyph unicode="&#x11b;" horiz-adv-x="1159" d="M86 528q0 248 149.5 400.5t378.5 152.5q215 0 336 -139t121 -354l-6 -88h-770q8 -168 111.5 -259t250.5 -91q168 0 306 118l8 6l84 -149q-16 -16 -50 -41t-140.5 -67t-219.5 -42q-246 0 -402.5 157.5t-156.5 395.5zM301 651h563q-4 131 -75.5 201t-178.5 70 q-119 0 -204 -72t-105 -199zM324 1475h178l108 -168h4l111 168h178l-184 -265h-211z" />
<glyph unicode="&#x11c;" horiz-adv-x="1587" d="M102 739q0 322 215 541t537 219q98 0 190.5 -18.5t152.5 -43t106.5 -51t66.5 -45.5l21 -18l-105 -156q-18 16 -53 41t-143.5 65t-219.5 40q-252 0 -403.5 -163t-151.5 -407q0 -254 155 -415.5t388 -161.5q113 0 217.5 45t153.5 92l47 45v213h-240v180h428v-741h-182v92 l2 62h-4l-18 -19q-12 -12 -56.5 -43t-92.5 -54.5t-126 -43t-160 -19.5q-303 0 -514 216t-211 548zM543 1577l184 266h211l184 -266h-178l-110 168h-5l-108 -168h-178z" />
<glyph unicode="&#x11d;" horiz-adv-x="1236" d="M90 553.5q0 234.5 123 381t338 146.5q217 0 317 -133l15 -22h6q-4 14 -4 32v99h194v-1014q0 -125 -45 -221t-121.5 -151.5t-169 -82t-196.5 -26.5q-190 0 -361 88l66 157q133 -72 291 -71q152 0 243 72.5t91 224.5v78l2 67h-5q-98 -166 -313 -166t-343 153.5t-128 388z M295 557q0 -166 82 -267.5t225 -101.5q123 0 201 85t78 278q0 356 -297 356q-137 0 -213 -93t-76 -257zM313 1210l185 265h211l184 -265h-178l-111 166h-4l-108 -166h-179z" />
<glyph unicode="&#x11e;" horiz-adv-x="1587" d="M102 739q0 322 215 541t537 219q98 0 190.5 -18.5t152.5 -43t106.5 -51t66.5 -45.5l21 -18l-105 -156q-18 16 -53 41t-143.5 65t-219.5 40q-252 0 -403.5 -163t-151.5 -407q0 -254 155 -415.5t388 -161.5q113 0 217.5 45t153.5 92l47 45v213h-240v180h428v-741h-182v92 l2 62h-4l-18 -19q-12 -12 -56.5 -43t-92.5 -54.5t-126 -43t-160 -19.5q-303 0 -514 216t-211 548zM557 1812v31h152v-28q0 -61 35.5 -93t89.5 -32q49 0 85.5 32.5t36.5 94.5v26h152v-31q0 -115 -81 -179t-193 -64q-115 0 -196 64t-81 179z" />
<glyph unicode="&#x11f;" horiz-adv-x="1236" d="M90 553.5q0 234.5 123 381t338 146.5q217 0 317 -133l15 -22h6q-4 14 -4 32v99h194v-1014q0 -125 -45 -221t-121.5 -151.5t-169 -82t-196.5 -26.5q-190 0 -361 88l66 157q133 -72 291 -71q152 0 243 72.5t91 224.5v78l2 67h-5q-98 -166 -313 -166t-343 153.5t-128 388z M295 557q0 -166 82 -267.5t225 -101.5q123 0 201 85t78 278q0 356 -297 356q-137 0 -213 -93t-76 -257zM328 1446v29h151v-27q0 -63 36 -94t89 -31q49 0 86 31.5t37 95.5v25h150v-29q0 -115 -80 -180.5t-193 -65.5q-115 0 -195.5 65.5t-80.5 180.5z" />
<glyph unicode="&#x120;" horiz-adv-x="1587" d="M102 739q0 322 215 541t537 219q98 0 190.5 -18.5t152.5 -43t106.5 -51t66.5 -45.5l21 -18l-105 -156q-18 16 -53 41t-143.5 65t-219.5 40q-252 0 -403.5 -163t-151.5 -407q0 -254 155 -415.5t388 -161.5q113 0 217.5 45t153.5 92l47 45v213h-240v180h428v-741h-182v92 l2 62h-4l-18 -19q-12 -12 -56.5 -43t-92.5 -54.5t-126 -43t-160 -19.5q-303 0 -514 216t-211 548zM741 1638v205h183v-205h-183z" />
<glyph unicode="&#x121;" horiz-adv-x="1236" d="M90 553.5q0 234.5 123 381t338 146.5q217 0 317 -133l15 -22h6q-4 14 -4 32v99h194v-1014q0 -125 -45 -221t-121.5 -151.5t-169 -82t-196.5 -26.5q-190 0 -361 88l66 157q133 -72 291 -71q152 0 243 72.5t91 224.5v78l2 67h-5q-98 -166 -313 -166t-343 153.5t-128 388z M295 557q0 -166 82 -267.5t225 -101.5q123 0 201 85t78 278q0 356 -297 356q-137 0 -213 -93t-76 -257zM512 1270v205h182v-205h-182z" />
<glyph unicode="&#x122;" horiz-adv-x="1587" d="M102 739q0 322 215 541t537 219q98 0 190.5 -18.5t152.5 -43t106.5 -51t66.5 -45.5l21 -18l-105 -156q-18 16 -53 41t-143.5 65t-219.5 40q-252 0 -403.5 -163t-151.5 -407q0 -254 155 -415.5t388 -161.5q113 0 217.5 45t153.5 92l47 45v213h-240v180h428v-741h-182v92 l2 62h-4l-18 -19q-12 -12 -56.5 -43t-92.5 -54.5t-126 -43t-160 -19.5q-303 0 -514 216t-211 548zM721 -426q39 113 39 175.5t-25 127.5h178q14 -57 15 -106q0 -86 -54 -197h-153z" />
<glyph unicode="&#x123;" horiz-adv-x="1236" d="M90 553.5q0 234.5 123 381t338 146.5q217 0 317 -133l15 -22h6q-4 14 -4 32v99h194v-1014q0 -125 -45 -221t-121.5 -151.5t-169 -82t-196.5 -26.5q-190 0 -361 88l66 157q133 -72 291 -71q152 0 243 72.5t91 224.5v78l2 67h-5q-98 -166 -313 -166t-343 153.5t-128 388z M295 557q0 -166 82 -267.5t225 -101.5q123 0 201 85t78 278q0 356 -297 356q-137 0 -213 -93t-76 -257zM506 1280q0 84 51 195h154q-41 -113 -41 -173.5t26 -125.5h-176q-14 57 -14 104z" />
<glyph unicode="&#x124;" horiz-adv-x="1579" d="M201 0v1475h207v-648h763v648h207v-1475h-207v647h-763v-647h-207zM502 1577l184 266h211l182 -266h-176l-110 168h-5l-108 -168h-178z" />
<glyph unicode="&#x125;" horiz-adv-x="1259" d="M-29 1577l183 266h211l184 -266h-176l-111 168h-6l-109 -168h-176zM160 0v1475h200v-541l-4 -88h4q43 92 145.5 163.5t246.5 71.5q365 0 364 -405v-676h-203v631q0 127 -42 196.5t-158.5 69.5t-208.5 -73.5t-125 -188.5q-18 -55 -19 -139v-496h-200z" />
<glyph unicode="&#x126;" horiz-adv-x="1671" d="M117 1073v144h129v258h207v-258h766v258h206v-258h131v-144h-131v-1073h-206v647h-766v-647h-207v1073h-129zM453 827h766v246h-766v-246z" />
<glyph unicode="&#x127;" horiz-adv-x="1259" d="M8 1176v133h152v166h200v-166h279v-133h-279v-242l-4 -88h4q43 92 145.5 163.5t246.5 71.5q365 0 364 -405v-676h-203v631q0 127 -42 196.5t-158.5 69.5t-208.5 -73.5t-125 -188.5q-18 -55 -19 -139v-496h-200v1176h-152z" />
<glyph unicode="&#x128;" horiz-adv-x="606" d="M-45 1579q0 266 213 266q59 0 105 -35.5t84 -71.5t73 -36q43 0 62.5 41t19.5 96h145q0 -266 -213 -266q-59 0 -105 36t-84 70.5t-73 34.5q-82 0 -82 -135h-145zM201 0v1475h207v-1475h-207z" />
<glyph unicode="&#x129;" horiz-adv-x="518" d="M-90 1212q0 264 213 265q61 0 107 -36t83 -71t74 -35q41 0 60.5 41t19.5 94h147q0 -264 -213 -264q-61 0 -107 35t-83 71t-74 36q-80 0 -80 -136h-147zM160 0v1057h200v-1057h-200z" />
<glyph unicode="&#x12a;" horiz-adv-x="606" d="M39 1638v146h532v-146h-532zM201 0v1475h207v-1475h-207z" />
<glyph unicode="&#x12b;" horiz-adv-x="518" d="M-4 1270v147h532v-147h-532zM160 0v1057h200v-1057h-200z" />
<glyph unicode="&#x12c;" horiz-adv-x="606" d="M29 1812v31h151v-28q0 -61 36 -93t89 -32q49 0 86 32.5t37 94.5v26h152v-31q0 -115 -81 -179t-194 -64q-115 0 -195.5 64t-80.5 179zM201 0v1475h207v-1475h-207z" />
<glyph unicode="&#x12d;" horiz-adv-x="518" d="M-12 1446v29h149v-27q0 -63 37 -94t90 -31q49 0 86 31.5t37 95.5v25h150v-29q0 -115 -80 -180.5t-193 -65.5q-117 0 -196.5 65.5t-79.5 180.5zM160 0v1057h200v-1057h-200z" />
<glyph unicode="&#x12e;" horiz-adv-x="606" d="M111 -233q0 125 131 229v4h-41v1475h207v-1475q-121 -102 -121 -186q0 -35 27.5 -57.5t58.5 -28.5l28 -4l-49 -156q-10 0 -25.5 3t-57.5 15.5t-73.5 33t-58 58.5t-26.5 89z" />
<glyph unicode="&#x12f;" horiz-adv-x="518" d="M66 -233q0 104 94 198v1092h200v-1057q-123 -111 -122 -186q0 -35 29.5 -57.5t58.5 -28.5l28 -4l-47 -156q-10 0 -25.5 3t-57.5 15.5t-74.5 33t-58 58.5t-25.5 89zM156 1268v207h204v-207h-204z" />
<glyph unicode="&#x130;" horiz-adv-x="606" d="M201 0v1475h207v-1475h-207zM213 1638v205h182v-205h-182z" />
<glyph unicode="&#x131;" horiz-adv-x="518" d="M160 0v1057h200v-1057h-200z" />
<glyph unicode="&#x132;" horiz-adv-x="1277" d="M201 0v1475h207v-1475h-207zM598 -10v190q51 0 96 12.5t91 45t73 99t27 165.5v973h209v-975q0 -510 -496 -510z" />
<glyph unicode="&#x133;" horiz-adv-x="1040" d="M156 1268v207h204v-207h-204zM160 0v1057h200v-1057h-200zM410 -252q18 -2 45 -2q37 0 69.5 8t71.5 28.5t63.5 71t24.5 123.5v1080h199v-1092q0 -125 -42 -210t-112 -121.5t-128 -50t-120 -13.5l-71 4v174zM682 1268v207h203v-207h-203z" />
<glyph unicode="&#x134;" horiz-adv-x="1120" d="M63 424v74h205v-64q0 -139 67.5 -203.5t166 -64.5t164 62.5t65.5 197.5v868h-373v181h580v-1051q0 -223 -129 -336t-309.5 -113t-308.5 114t-128 335zM354 1577l185 266h211l184 -266h-178l-111 168h-4l-109 -168h-178z" />
<glyph unicode="&#x135;" horiz-adv-x="516" d="M-115 -252q18 -2 45 -2q37 0 70 8t72 28.5t63.5 71t24.5 123.5v1080h198v-1092q0 -125 -42 -210t-111.5 -121.5t-128 -50t-119.5 -13.5l-72 4v174zM-27 1210l183 265h196l185 -265h-172l-109 168h-4l-109 -168h-170z" />
<glyph unicode="&#x136;" horiz-adv-x="1300" d="M201 0v1475h207v-621h219l372 621h228l-428 -701v-4l454 -770h-233l-393 676h-219v-676h-207zM561 -426q41 113 41 175.5t-24 127.5h176q14 -57 14 -106q0 -86 -51 -197h-156z" />
<glyph unicode="&#x137;" horiz-adv-x="1097" d="M160 0v1475h200v-807h150l289 389h229l-352 -465v-4l391 -588h-236l-317 498h-154v-498h-200zM463 -426q41 113 41 175.5t-25 127.5h176q14 -57 15 -106q0 -86 -52 -197h-155z" />
<glyph unicode="&#x138;" horiz-adv-x="1103" d="M160 0v1057h200v-416h148l303 416h233l-368 -494v-4l375 -559h-242l-297 471h-152v-471h-200z" />
<glyph unicode="&#x139;" horiz-adv-x="1103" d="M201 0v1475h207v-1295h659v-180h-866zM215 1577l154 266h217l-201 -266h-170z" />
<glyph unicode="&#x13a;" horiz-adv-x="552" d="M145 289v1186h203v-1151q0 -88 30 -119t83 -31l37 2v-180q-33 -4 -68 -4q-285 0 -285 297zM160 1577l151 266h217l-200 -266h-168z" />
<glyph unicode="&#x13b;" horiz-adv-x="1103" d="M201 0v1475h207v-1295h659v-180h-866zM539 -426q41 113 41 175.5t-27 127.5h178q14 -57 14 -106q0 -86 -51 -197h-155z" />
<glyph unicode="&#x13c;" horiz-adv-x="552" d="M145 289v1186h203v-1151q0 -88 30 -119t83 -31l37 2v-180q-33 -4 -68 -4q-285 0 -285 297zM215 -426q39 113 39 175.5t-25 127.5h179q14 -57 14 -106q0 -86 -51 -197h-156z" />
<glyph unicode="&#x13d;" horiz-adv-x="1103" d="M201 0v1475h207v-1295h659v-180h-866zM569 1171q41 113 41 175.5t-24 128.5h176q14 -55 14 -107q0 -86 -51 -197h-156z" />
<glyph unicode="&#x13e;" horiz-adv-x="614" d="M145 289v1186h203v-1151q0 -88 30 -119t83 -31l37 2v-180q-33 -4 -68 -4q-285 0 -285 297zM457 1171q41 113 41 175.5t-25 128.5h176q14 -55 15 -107q0 -86 -52 -197h-155z" />
<glyph unicode="&#x13f;" horiz-adv-x="1103" d="M201 0v1475h207v-1295h659v-180h-866zM651 686v215h207v-215h-207z" />
<glyph unicode="&#x140;" horiz-adv-x="708" d="M145 289v1186h203v-1151q0 -88 30 -119t83 -31l37 2v-180q-33 -4 -68 -4q-285 0 -285 297zM502 686v215h207v-215h-207z" />
<glyph unicode="&#x141;" horiz-adv-x="1153" d="M125 557v203l123 71v644h207v-527l229 131v-202l-229 -132v-565h661v-180h-868v629z" />
<glyph unicode="&#x142;" horiz-adv-x="669" d="M76 573v203l151 88v611h203v-494l172 98v-202l-172 -99v-454q0 -88 29.5 -119t83.5 -31l37 2v-180q-33 -4 -68 -4q-285 0 -285 297v373z" />
<glyph unicode="&#x143;" horiz-adv-x="1581" d="M201 0v1475h205l655 -959q25 -35 55.5 -88t48.5 -90l19 -35h4q-14 131 -14 213v959h206v-1475h-202l-658 956q-55 82 -123 215h-4q14 -131 15 -215v-956h-207zM700 1577l152 266h217l-201 -266h-168z" />
<glyph unicode="&#x144;" horiz-adv-x="1259" d="M160 0v1057h194v-139l-4 -78h4q43 90 143.5 165.5t254.5 75.5q365 0 364 -405v-676h-203v631q0 127 -42 196.5t-158 69.5q-119 0 -210 -72.5t-124 -187.5q-18 -55 -19 -141v-496h-200zM563 1210l154 265h217l-201 -265h-170z" />
<glyph unicode="&#x145;" horiz-adv-x="1581" d="M201 0v1475h205l655 -959q25 -35 55.5 -88t48.5 -90l19 -35h4q-14 131 -14 213v959h206v-1475h-202l-658 956q-55 82 -123 215h-4q14 -131 15 -215v-956h-207zM684 -426q39 113 39 175.5t-25 127.5h176q16 -57 17 -106q0 -86 -53 -197h-154z" />
<glyph unicode="&#x146;" horiz-adv-x="1259" d="M160 0v1057h194v-139l-4 -78h4q43 90 143.5 165.5t254.5 75.5q365 0 364 -405v-676h-203v631q0 127 -42 196.5t-158 69.5q-119 0 -210 -72.5t-124 -187.5q-18 -55 -19 -141v-496h-200zM526 -426q39 113 39 175.5t-24 127.5h178q14 -57 14 -106q0 -86 -51 -197h-156z" />
<glyph unicode="&#x147;" horiz-adv-x="1581" d="M201 0v1475h205l655 -959q25 -35 55.5 -88t48.5 -90l19 -35h4q-14 131 -14 213v959h206v-1475h-202l-658 956q-55 82 -123 215h-4q14 -131 15 -215v-956h-207zM502 1843h178l108 -170h5l110 170h176l-182 -266h-211z" />
<glyph unicode="&#x148;" horiz-adv-x="1259" d="M160 0v1057h194v-139l-4 -78h4q43 90 143.5 165.5t254.5 75.5q365 0 364 -405v-676h-203v631q0 127 -42 196.5t-158 69.5q-119 0 -210 -72.5t-124 -187.5q-18 -55 -19 -141v-496h-200zM362 1475h179l108 -168h4l111 168h178l-184 -265h-211z" />
<glyph unicode="&#x149;" horiz-adv-x="1259" d="M-8 1171q39 113 39 175.5t-25 128.5h178q14 -55 15 -107q0 -86 -54 -197h-153zM160 0v1057h194v-139l-4 -78h4q43 90 143.5 165.5t254.5 75.5q365 0 364 -405v-676h-203v631q0 127 -42 196.5t-158 69.5q-119 0 -210 -72.5t-124 -187.5q-18 -55 -19 -141v-496h-200z" />
<glyph unicode="&#x14a;" horiz-adv-x="1579" d="M201 0v1475h202l658 -959q14 -23 32.5 -53.5t33 -57t27.5 -51t20 -37.5l8 -14h4q-12 131 -12 213v959h204v-1418q0 -137 -43 -236.5t-115.5 -151.5t-153.5 -74.5t-171 -22.5v190q96 0 180 62.5t92 189.5l-649 942q-55 80 -121 215h-4q12 -131 13 -215v-956h-205z" />
<glyph unicode="&#x14b;" horiz-adv-x="1259" d="M160 0v1057h194v-156l-4 -61h4q43 90 143.5 165.5t254.5 75.5q186 0 275 -100t89 -305v-717q0 -100 -30.5 -176t-73.5 -117t-102.5 -65.5t-105.5 -30.5t-93 -6l-72 4v174q18 -4 47 -4q37 0 71 9t71.5 30.5t61 72t23.5 123.5v658q0 127 -41 196.5t-157 69.5 q-121 0 -212 -71.5t-124 -188.5q-18 -55 -19 -141v-496h-200z" />
<glyph unicode="&#x14c;" horiz-adv-x="1714" d="M100 748q0 317 219.5 534t539 217t537.5 -217t218 -534q0 -326 -218 -549.5t-537.5 -223.5t-539 223.5t-219.5 549.5zM313 748q0 -246 159 -414t386 -168t385 168t158 414q0 240 -158 402.5t-385 162.5t-386 -162.5t-159 -402.5zM594 1638v146h532v-146h-532z" />
<glyph unicode="&#x14d;" horiz-adv-x="1302" d="M82 530.5q0 237.5 165 394t405.5 156.5t405.5 -156.5t165 -394t-166 -396.5t-404.5 -159t-404.5 159t-166 396.5zM289 531.5q0 -162.5 106.5 -272t255.5 -109.5q154 0 259.5 107.5t105.5 272.5q0 164 -105.5 270.5t-259.5 106.5q-150 0 -256 -106.5t-106 -269zM387 1270 v147h533v-147h-533z" />
<glyph unicode="&#x14e;" horiz-adv-x="1714" d="M100 748q0 317 219.5 534t539 217t537.5 -217t218 -534q0 -326 -218 -549.5t-537.5 -223.5t-539 223.5t-219.5 549.5zM313 748q0 -246 159 -414t386 -168t385 168t158 414q0 240 -158 402.5t-385 162.5t-386 -162.5t-159 -402.5zM584 1812v31h149v-28q0 -61 37 -93 t88 -32t87 32.5t36 94.5v26h152v-31q0 -115 -81 -179t-194 -64q-115 0 -194.5 64t-79.5 179z" />
<glyph unicode="&#x14f;" horiz-adv-x="1302" d="M82 530.5q0 237.5 165 394t405.5 156.5t405.5 -156.5t165 -394t-166 -396.5t-404.5 -159t-404.5 159t-166 396.5zM289 531.5q0 -162.5 106.5 -272t255.5 -109.5q154 0 259.5 107.5t105.5 272.5q0 164 -105.5 270.5t-259.5 106.5q-150 0 -256 -106.5t-106 -269zM379 1446 v29h149v-27q0 -63 37 -94t88 -31t87 31.5t36 95.5v25h152v-29q0 -115 -81 -180.5t-194 -65.5q-115 0 -194.5 65.5t-79.5 180.5z" />
<glyph unicode="&#x150;" horiz-adv-x="1714" d="M100 748q0 317 219.5 534t539 217t537.5 -217t218 -534q0 -326 -218 -549.5t-537.5 -223.5t-539 223.5t-219.5 549.5zM313 748q0 -246 159 -414t386 -168t385 168t158 414q0 240 -158 402.5t-385 162.5t-386 -162.5t-159 -402.5zM584 1577l141 266h182l-149 -266h-174z M905 1577l152 266h211l-201 -266h-162z" />
<glyph unicode="&#x151;" horiz-adv-x="1302" d="M82 530.5q0 237.5 165 394t405.5 156.5t405.5 -156.5t165 -394t-166 -396.5t-404.5 -159t-404.5 159t-166 396.5zM289 531.5q0 -162.5 106.5 -272t255.5 -109.5q154 0 259.5 107.5t105.5 272.5q0 164 -105.5 270.5t-259.5 106.5q-150 0 -256 -106.5t-106 -269zM379 1210 l141 265h182l-149 -265h-174zM700 1210l152 265h211l-201 -265h-162z" />
<glyph unicode="&#x152;" horiz-adv-x="2004" d="M100 739q0 319 218.5 536.5t543.5 217.5q55 0 139 -9t119 -9h748v-181h-651v-460h530v-181h-530v-473h688v-180h-783q-35 0 -119.5 -9t-140.5 -9q-324 0 -543 217.5t-219 539.5zM313 739q0 -246 155 -411.5t394 -165.5q39 0 75 3t54 7l21 4v1122q-66 18 -150 19 q-240 0 -394.5 -167t-154.5 -411z" />
<glyph unicode="&#x153;" horiz-adv-x="2088" d="M84 526.5q0 243.5 164 399t399 155.5q307 0 459 -250h4q133 250 434 250q215 0 336 -139t121 -354l-6 -88h-770q12 -168 114.5 -259t247.5 -91q168 0 305 118l9 6l84 -149q-16 -16 -50 -41t-140.5 -67t-219.5 -42q-319 0 -461 256h-4q-150 -256 -463 -256 q-236 0 -399.5 154t-163.5 397.5zM291 526q0 -168 104.5 -272t257 -104t258 105t105.5 277q0 166 -106.5 270.5t-257 104.5t-256 -105.5t-105.5 -275.5zM1231 651h563q-4 129 -74.5 200t-177.5 71q-121 0 -206 -72t-105 -199z" />
<glyph unicode="&#x154;" horiz-adv-x="1337" d="M201 0v1475h450q186 0 277 -33q115 -43 181.5 -149.5t66.5 -250.5q0 -141 -72 -249.5t-193 -149.5v-4q16 -18 43 -68l314 -571h-234l-311 588h-315v-588h-207zM408 766h297q121 0 190.5 72.5t69.5 195.5q0 162 -117 228q-61 33 -203 32h-237v-528zM553 1577l154 266h217 l-201 -266h-170z" />
<glyph unicode="&#x155;" horiz-adv-x="782" d="M160 0v1057h194v-185l-4 -77h4q39 121 127 197.5t209 76.5l51 -4v-201q-27 6 -57 6q-98 0 -180 -66.5t-117 -180.5q-27 -82 -27 -191v-432h-200zM379 1210l151 265h218l-201 -265h-168z" />
<glyph unicode="&#x156;" horiz-adv-x="1337" d="M201 0v1475h450q186 0 277 -33q115 -43 181.5 -149.5t66.5 -250.5q0 -141 -72 -249.5t-193 -149.5v-4q16 -18 43 -68l314 -571h-234l-311 588h-315v-588h-207zM408 766h297q121 0 190.5 72.5t69.5 195.5q0 162 -117 228q-61 33 -203 32h-237v-528zM580 -426 q39 113 38.5 175.5t-24.5 127.5h176q16 -57 16 -106q0 -86 -53 -197h-153z" />
<glyph unicode="&#x157;" horiz-adv-x="782" d="M154 -426q41 113 41 175.5t-25 127.5h176q14 -57 14 -106q0 -86 -51 -197h-155zM160 0v1057h194v-185l-4 -77h4q39 121 127 197.5t209 76.5l51 -4v-201q-27 6 -57 6q-98 0 -180 -66.5t-117 -180.5q-27 -82 -27 -191v-432h-200z" />
<glyph unicode="&#x158;" horiz-adv-x="1337" d="M201 0v1475h450q186 0 277 -33q115 -43 181.5 -149.5t66.5 -250.5q0 -141 -72 -249.5t-193 -149.5v-4q16 -18 43 -68l314 -571h-234l-311 588h-315v-588h-207zM354 1843h178l109 -170h4l111 170h178l-184 -266h-211zM408 766h297q121 0 190.5 72.5t69.5 195.5 q0 162 -117 228q-61 33 -203 32h-237v-528z" />
<glyph unicode="&#x159;" horiz-adv-x="782" d="M160 0v1057h194v-185l-4 -77h4q39 121 127 197.5t209 76.5l51 -4v-201q-27 6 -57 6q-98 0 -180 -66.5t-117 -180.5q-27 -82 -27 -191v-432h-200zM182 1475h176l109 -168h6l111 168h176l-182 -265h-213z" />
<glyph unicode="&#x15a;" horiz-adv-x="1138" d="M88 170l117 156q6 -6 17 -16.5t51 -39t81 -49t103.5 -37t124.5 -16.5q109 0 181.5 58.5t72.5 158.5q0 63 -40 113.5t-102.5 86.5t-138.5 68.5t-152.5 69.5t-139 83t-102.5 118.5t-40 162.5q0 174 135 293t342 119q121 0 225.5 -37t147.5 -76l45 -34l-94 -172 q-14 14 -43 35.5t-113 57.5t-168 36q-115 0 -191.5 -63.5t-76.5 -153.5q0 -82 73.5 -140.5t179 -100.5t211 -92t178 -143.5t72.5 -224.5q0 -178 -126.5 -297t-339.5 -119q-88 0 -171 19.5t-138.5 48.5t-98.5 57.5t-61 49.5zM485 1577l152 266h217l-201 -266h-168z" />
<glyph unicode="&#x15b;" horiz-adv-x="933" d="M74 129l98 145q12 -16 36.5 -35.5t104.5 -54t162 -34.5q70 0 122 35.5t52 97.5q0 51 -56 91t-135 70.5t-159 66.5t-136.5 105.5t-56.5 163.5q0 141 109 221t274 80q102 0 187.5 -28.5t120.5 -57.5l32 -30l-81 -152q-10 10 -30 25.5t-88.5 42t-142.5 26.5t-124 -32.5 t-50 -98.5q0 -51 56.5 -89t136.5 -67.5t158.5 -66.5t135 -105.5t56.5 -164.5q0 -135 -105.5 -221.5t-275.5 -86.5q-117 0 -216 39t-142 78zM387 1210l152 265h217l-201 -265h-168z" />
<glyph unicode="&#x15c;" horiz-adv-x="1138" d="M88 170l117 156q6 -6 17 -16.5t51 -39t81 -49t103.5 -37t124.5 -16.5q109 0 181.5 58.5t72.5 158.5q0 63 -40 113.5t-102.5 86.5t-138.5 68.5t-152.5 69.5t-139 83t-102.5 118.5t-40 162.5q0 174 135 293t342 119q121 0 225.5 -37t147.5 -76l45 -34l-94 -172 q-14 14 -43 35.5t-113 57.5t-168 36q-115 0 -191.5 -63.5t-76.5 -153.5q0 -82 73.5 -140.5t179 -100.5t211 -92t178 -143.5t72.5 -224.5q0 -178 -126.5 -297t-339.5 -119q-88 0 -171 19.5t-138.5 48.5t-98.5 57.5t-61 49.5zM287 1577l184 266h211l182 -266h-176l-110 168h-7 l-108 -168h-176z" />
<glyph unicode="&#x15d;" horiz-adv-x="933" d="M74 129l98 145q12 -16 36.5 -35.5t104.5 -54t162 -34.5q70 0 122 35.5t52 97.5q0 51 -56 91t-135 70.5t-159 66.5t-136.5 105.5t-56.5 163.5q0 141 109 221t274 80q102 0 187.5 -28.5t120.5 -57.5l32 -30l-81 -152q-10 10 -30 25.5t-88.5 42t-142.5 26.5t-124 -32.5 t-50 -98.5q0 -51 56.5 -89t136.5 -67.5t158.5 -66.5t135 -105.5t56.5 -164.5q0 -135 -105.5 -221.5t-275.5 -86.5q-117 0 -216 39t-142 78zM188 1210l185 265h211l182 -265h-176l-111 166h-4l-110 -166h-177z" />
<glyph unicode="&#x15e;" horiz-adv-x="1138" d="M88 170l117 156q6 -6 17 -16.5t51 -39t81 -49t103.5 -37t124.5 -16.5q109 0 181.5 58.5t72.5 158.5q0 63 -40 113.5t-102.5 86.5t-138.5 68.5t-152.5 69.5t-139 83t-102.5 118.5t-40 162.5q0 174 135 293t342 119q121 0 225.5 -37t147.5 -76l45 -34l-94 -172 q-14 14 -43 35.5t-113 57.5t-168 36q-115 0 -191.5 -63.5t-76.5 -153.5q0 -82 73.5 -140.5t179 -100.5t211 -92t178 -143.5t72.5 -224.5q0 -166 -111.5 -281.5t-301.5 -132.5l-17 -81q68 -8 109 -48.5t41 -103.5q0 -90 -61.5 -133t-151.5 -43l-115 14v121q43 -14 88 -14 q100 0 100.5 64.5t-110.5 64.5l-37 -2l41 161q-123 10 -230.5 58.5t-154.5 89.5z" />
<glyph unicode="&#x15f;" horiz-adv-x="933" d="M74 129l98 145q12 -16 36.5 -35.5t104.5 -54t162 -34.5q70 0 122 35.5t52 97.5q0 51 -56 91t-135 70.5t-159 66.5t-136.5 105.5t-56.5 163.5q0 141 109 221t274 80q102 0 187.5 -28.5t120.5 -57.5l32 -30l-81 -152q-10 10 -30 25.5t-88.5 42t-142.5 26.5t-124 -32.5 t-50 -98.5q0 -51 56.5 -89t136.5 -67.5t158.5 -66.5t135 -105.5t56.5 -164.5q0 -123 -92 -208t-244 -98l-16 -81q66 -8 107.5 -48.5t41.5 -103.5q0 -90 -61.5 -133t-151.5 -43l-114 14v121q43 -14 88 -14q100 0 100 64.5t-111 64.5l-38 -2l43 164q-96 8 -180.5 45.5 t-118.5 70.5z" />
<glyph unicode="&#x160;" horiz-adv-x="1138" d="M88 170l117 156q6 -6 17 -16.5t51 -39t81 -49t103.5 -37t124.5 -16.5q109 0 181.5 58.5t72.5 158.5q0 63 -40 113.5t-102.5 86.5t-138.5 68.5t-152.5 69.5t-139 83t-102.5 118.5t-40 162.5q0 174 135 293t342 119q121 0 225.5 -37t147.5 -76l45 -34l-94 -172 q-14 14 -43 35.5t-113 57.5t-168 36q-115 0 -191.5 -63.5t-76.5 -153.5q0 -82 73.5 -140.5t179 -100.5t211 -92t178 -143.5t72.5 -224.5q0 -178 -126.5 -297t-339.5 -119q-88 0 -171 19.5t-138.5 48.5t-98.5 57.5t-61 49.5zM287 1843h176l108 -170h7l110 170h176l-182 -266 h-211z" />
<glyph unicode="&#x161;" horiz-adv-x="933" d="M74 129l98 145q12 -16 36.5 -35.5t104.5 -54t162 -34.5q70 0 122 35.5t52 97.5q0 51 -56 91t-135 70.5t-159 66.5t-136.5 105.5t-56.5 163.5q0 141 109 221t274 80q102 0 187.5 -28.5t120.5 -57.5l32 -30l-81 -152q-10 10 -30 25.5t-88.5 42t-142.5 26.5t-124 -32.5 t-50 -98.5q0 -51 56.5 -89t136.5 -67.5t158.5 -66.5t135 -105.5t56.5 -164.5q0 -135 -105.5 -221.5t-275.5 -86.5q-117 0 -216 39t-142 78zM188 1475h177l110 -168h4l111 168h176l-182 -265h-211z" />
<glyph unicode="&#x162;" horiz-adv-x="1236" d="M10 1294v181h1219v-181h-506v-1294h-47l-23 -104q68 -8 110 -48.5t42 -103.5q0 -90 -61.5 -133t-151.5 -43l-115 14v121q41 -14 86 -14q100 0 100.5 64.5t-110.5 64.5l-37 -2l47 184h-47v1294h-506z" />
<glyph unicode="&#x163;" horiz-adv-x="749" d="M68 879v163h143v306h197v-306h254v-163h-254v-469q0 -61 16 -106.5t40.5 -70t56.5 -39t58.5 -18.5t53.5 -4l49 4v-180q-31 -4 -72 -4q-66 0 -118 10l-25 -106q68 -8 109.5 -48.5t41.5 -103.5q0 -90 -61 -133t-151 -43l-115 14v121q41 -14 88 -14q100 0 100 64.5 t-110 64.5l-39 -2l59 221q-184 94 -184 350v492h-137z" />
<glyph unicode="&#x164;" horiz-adv-x="1236" d="M10 1294v181h1219v-181h-506v-1294h-207v1294h-506zM330 1843h178l108 -170h5l110 170h178l-184 -266h-211z" />
<glyph unicode="&#x165;" horiz-adv-x="747" d="M66 879v163h143v306h197v-306h253v-163h-253v-469q0 -61 16 -106.5t40.5 -70t56.5 -39t58.5 -18.5t53.5 -4l49 4v-180q-31 -4 -72 -4q-51 0 -97 6t-104.5 31.5t-100.5 65.5t-72.5 116t-30.5 176v492h-137zM516 1180q39 113 39 172q0 61 -25 125h179q14 -55 14 -105 q0 -84 -53 -192h-154z" />
<glyph unicode="&#x166;" horiz-adv-x="1286" d="M33 1294v181h1218v-181h-506v-487h334v-160h-334v-647h-206v647h-326v160h326v487h-506z" />
<glyph unicode="&#x167;" horiz-adv-x="794" d="M84 541v143h145v195h-137v163h144v306h196v-306h256v-163h-256v-195h244v-143h-244v-140q0 -72 23.5 -121t61.5 -70.5t72 -29.5t68 -8l50 4v-180q-31 -4 -72 -4q-49 0 -95 6t-104.5 31.5t-101.5 65.5t-74 116t-31 176v154h-145z" />
<glyph unicode="&#x168;" horiz-adv-x="1519" d="M180 522v953h207v-953q0 -168 100.5 -262t270.5 -94q174 0 275.5 94t101.5 266v949h206v-953q0 -244 -160.5 -395.5t-419.5 -151.5t-420 151.5t-161 395.5zM410 1579q0 266 213 266q61 0 106 -35.5t83 -71.5t73 -36q43 0 62.5 41t19.5 96h147q0 -266 -213 -266 q-61 0 -107 36t-84 70.5t-73 34.5q-82 0 -82 -135h-145z" />
<glyph unicode="&#x169;" horiz-adv-x="1247" d="M143 381v676h203v-631q0 -127 41 -194.5t158 -67.5q156 0 250 116.5t94 280.5v496h201v-1057h-195v139l4 78h-4q-41 -92 -144.5 -167t-244.5 -75q-363 0 -363 406zM268 1212q0 264 213 265q59 0 105.5 -36t84.5 -71t72 -35q43 0 62.5 41t19.5 94h146q0 -264 -213 -264 q-59 0 -105.5 35t-84.5 71t-72 36q-82 0 -82 -136h-146z" />
<glyph unicode="&#x16a;" horiz-adv-x="1519" d="M180 522v953h207v-953q0 -168 100.5 -262t270.5 -94q174 0 275.5 94t101.5 266v949h206v-953q0 -244 -160.5 -395.5t-419.5 -151.5t-420 151.5t-161 395.5zM496 1638v146h532v-146h-532z" />
<glyph unicode="&#x16b;" horiz-adv-x="1247" d="M143 381v676h203v-631q0 -127 41 -194.5t158 -67.5q156 0 250 116.5t94 280.5v496h201v-1057h-195v139l4 78h-4q-41 -92 -144.5 -167t-244.5 -75q-363 0 -363 406zM352 1270v147h533v-147h-533z" />
<glyph unicode="&#x16c;" horiz-adv-x="1519" d="M180 522v953h207v-953q0 -168 100.5 -262t270.5 -94q174 0 275.5 94t101.5 266v949h206v-953q0 -244 -160.5 -395.5t-419.5 -151.5t-420 151.5t-161 395.5zM485 1812v31h150v-28q0 -61 37 -93t88 -32t87 32.5t36 94.5v26h151v-31q0 -115 -81 -179t-193 -64 q-115 0 -195 64t-80 179z" />
<glyph unicode="&#x16d;" horiz-adv-x="1247" d="M143 381v676h203v-631q0 -127 41 -194.5t158 -67.5q156 0 250 116.5t94 280.5v496h201v-1057h-195v139l4 78h-4q-41 -92 -144.5 -167t-244.5 -75q-363 0 -363 406zM342 1446v29h152v-27q0 -63 35.5 -94t88.5 -31q49 0 86 31.5t37 95.5v25h152v-29q0 -115 -81 -180.5 t-194 -65.5q-115 0 -195.5 65.5t-80.5 180.5z" />
<glyph unicode="&#x16e;" horiz-adv-x="1519" d="M180 522v953h207v-953q0 -168 100.5 -262t270.5 -94q174 0 275.5 94t101.5 266v949h206v-953q0 -244 -160.5 -395.5t-419.5 -151.5t-420 151.5t-161 395.5zM584 1706q0 72 52 115t125 43t125 -43t52 -115q0 -68 -52 -111t-125 -43t-125 43t-52 111zM692 1706 q0 -29 18.5 -48.5t49.5 -19.5t50 19.5t19 48.5q0 35 -19 54.5t-50 19.5t-49.5 -19.5t-18.5 -54.5z" />
<glyph unicode="&#x16f;" horiz-adv-x="1247" d="M143 381v676h203v-631q0 -127 41 -194.5t158 -67.5q156 0 250 116.5t94 280.5v496h201v-1057h-195v139l4 78h-4q-41 -92 -144.5 -167t-244.5 -75q-363 0 -363 406zM440 1339q0 70 52.5 113t126 43t126 -43t52.5 -113t-52.5 -112.5t-126 -42.5t-126 42.5t-52.5 112.5z M549 1339q0 -29 19.5 -49t49.5 -20q29 0 49.5 20.5t20.5 48.5q0 33 -20.5 53.5t-49.5 20.5q-31 0 -50 -20.5t-19 -53.5z" />
<glyph unicode="&#x170;" horiz-adv-x="1519" d="M180 522v953h207v-953q0 -168 100.5 -262t270.5 -94q174 0 275.5 94t101.5 266v949h206v-953q0 -244 -160.5 -395.5t-419.5 -151.5t-420 151.5t-161 395.5zM485 1577l142 266h182l-150 -266h-174zM807 1577l151 266h211l-200 -266h-162z" />
<glyph unicode="&#x171;" horiz-adv-x="1247" d="M143 381v676h203v-631q0 -127 41 -194.5t158 -67.5q156 0 250 116.5t94 280.5v496h201v-1057h-195v139l4 78h-4q-41 -92 -144.5 -167t-244.5 -75q-363 0 -363 406zM342 1210l143 265h181l-148 -265h-176zM664 1210l153 265h211l-201 -265h-163z" />
<glyph unicode="&#x172;" horiz-adv-x="1517" d="M180 522v953h205v-953q0 -168 100.5 -262t270.5 -94q174 0 275.5 94t101.5 266v949h204v-953q0 -98 -23.5 -177t-69.5 -137t-87 -93t-102 -78q-53 -37 -79 -54.5t-60.5 -49t-49 -59.5t-14.5 -60q0 -35 29.5 -57.5t58.5 -28.5l29 -4l-47 -156q-10 0 -26.5 3t-57.5 15.5 t-74 33t-58.5 58t-25.5 89.5q0 109 108 208h-30q-258 0 -418 150.5t-160 396.5z" />
<glyph unicode="&#x173;" horiz-adv-x="1247" d="M143 381v676h203v-631q0 -127 41 -194.5t158 -67.5q156 0 250 116.5t94 280.5v496h201v-1057q-135 -111 -136 -186q0 -35 30 -57.5t58 -28.5l29 -4l-47 -156q-10 0 -26.5 3t-57.5 15.5t-73.5 33t-59.5 58t-27 89.5q0 104 115 208v164l4 78h-4q-41 -92 -144.5 -167 t-244.5 -75q-363 0 -363 406z" />
<glyph unicode="&#x174;" horiz-adv-x="1978" d="M70 1475h213l260 -1082q18 -80 26 -157h4q12 76 33 157l289 1082h182l289 -1082l31 -157h4q6 78 29 157l270 1082h213l-385 -1475h-242l-254 956q-25 94 -45 209h-4q-18 -115 -43 -209l-254 -956h-242zM707 1577l184 266h211l182 -266h-176l-111 168h-6l-108 -168h-176z " />
<glyph unicode="&#x175;" horiz-adv-x="1699" d="M35 1057h215l221 -742q6 -23 13.5 -52.5t9.5 -45.5l4 -14h4q10 59 26 112l230 740h186l227 -740l29 -112h6q8 59 25 112l221 742h213l-340 -1057h-223l-221 680l-29 115h-4q-12 -61 -29 -115l-217 -680h-225zM561 1210l184 265h211l185 -265h-178l-111 166h-4l-109 -166 h-178z" />
<glyph unicode="&#x176;" horiz-adv-x="1226" d="M16 1475h234l274 -486l90 -184h4q43 102 91 184l268 486h235l-493 -850v-625h-207v625zM326 1577l184 266h211l184 -266h-178l-111 168h-4l-108 -168h-178z" />
<glyph unicode="&#x177;" horiz-adv-x="1064" d="M4 1057h227l267 -692l39 -127h4q16 72 37 124l256 695h219l-496 -1247q-47 -119 -138 -183.5t-204 -64.5q-51 0 -102.5 16t-77.5 33l-25 14l72 156q57 -45 123 -45q125 0 190 155l51 121zM248 1210l184 265h211l184 -265h-178l-110 166h-4l-109 -166h-178z" />
<glyph unicode="&#x178;" horiz-adv-x="1226" d="M16 1475h234l274 -486l90 -184h4q43 102 91 184l268 486h235l-493 -850v-625h-207v625zM350 1632v211h168v-211h-168zM700 1632v211h166v-211h-166z" />
<glyph unicode="&#x179;" horiz-adv-x="1267" d="M86 0v137l711 1024q25 37 50 71t42 50l14 14v4q-41 -6 -110 -6h-670v181h1036v-136l-710 -1026q-25 -35 -51.5 -68.5t-43.5 -47.5l-12 -17v-4q41 4 111 4h714v-180h-1081zM563 1577l154 266h217l-201 -266h-170z" />
<glyph unicode="&#x17a;" horiz-adv-x="1079" d="M82 0v117l532 669l88 97v6q-35 -6 -102 -6h-496v174h871v-117l-533 -670l-90 -96v-4q37 4 105 4h538v-174h-913zM442 1210l154 265h217l-201 -265h-170z" />
<glyph unicode="&#x17b;" horiz-adv-x="1267" d="M86 0v137l711 1024q25 37 50 71t42 50l14 14v4q-41 -6 -110 -6h-670v181h1036v-136l-710 -1026q-25 -35 -51.5 -68.5t-43.5 -47.5l-12 -17v-4q41 4 111 4h714v-180h-1081zM563 1638v205h182v-205h-182z" />
<glyph unicode="&#x17c;" horiz-adv-x="1079" d="M82 0v117l532 669l88 97v6q-35 -6 -102 -6h-496v174h871v-117l-533 -670l-90 -96v-4q37 4 105 4h538v-174h-913zM440 1270v205h183v-205h-183z" />
<glyph unicode="&#x17d;" horiz-adv-x="1267" d="M86 0v137l711 1024q25 37 50 71t42 50l14 14v4q-41 -6 -110 -6h-670v181h1036v-136l-710 -1026q-25 -35 -51.5 -68.5t-43.5 -47.5l-12 -17v-4q41 4 111 4h714v-180h-1081zM365 1843h178l108 -170h4l111 170h178l-184 -266h-211z" />
<glyph unicode="&#x17e;" horiz-adv-x="1079" d="M82 0v117l532 669l88 97v6q-35 -6 -102 -6h-496v174h871v-117l-533 -670l-90 -96v-4q37 4 105 4h538v-174h-913zM242 1475h178l108 -168h4l111 168h178l-184 -265h-211z" />
<glyph unicode="&#x17f;" horiz-adv-x="575" d="M84 879v163h131v50q0 100 29.5 174.5t71.5 115.5t100.5 64.5t103.5 31t94 7.5l78 -6v-172q-23 4 -53 4q-35 0 -68.5 -9.5t-71.5 -30t-59.5 -68.5t-21.5 -118v-1085h-203v879h-131z" />
<glyph unicode="&#x192;" horiz-adv-x="1187" d="M59 -43q78 -14 136 -14q35 0 68.5 9t72.5 30.5t65.5 70.5t32.5 123l49 555h-172v164h187l20 213q8 100 45 174t82 115t104.5 64.5t106.5 30.5t94 7l176 -14v-174q-104 14 -168 14q-35 0 -68.5 -8t-72.5 -30.5t-65.5 -72t-32.5 -122.5l-19 -197h244v-164h-258l-51 -571 q-10 -125 -59.5 -208t-120 -120t-129 -50t-121.5 -13l-146 12v176z" />
<glyph unicode="&#x218;" horiz-adv-x="1138" d="M88 170l117 156q6 -6 17 -16.5t51 -39t81 -49t103.5 -37t124.5 -16.5q109 0 181.5 58.5t72.5 158.5q0 63 -40 113.5t-102.5 86.5t-138.5 68.5t-152.5 69.5t-139 83t-102.5 118.5t-40 162.5q0 174 135 293t342 119q121 0 225.5 -37t147.5 -76l45 -34l-94 -172 q-14 14 -43 35.5t-113 57.5t-168 36q-115 0 -191.5 -63.5t-76.5 -153.5q0 -82 73.5 -140.5t179 -100.5t211 -92t178 -143.5t72.5 -224.5q0 -178 -126.5 -297t-339.5 -119q-88 0 -171 19.5t-138.5 48.5t-98.5 57.5t-61 49.5zM457 -426q41 113 41 175.5t-25 127.5h176 q14 -57 15 -106q0 -86 -52 -197h-155z" />
<glyph unicode="&#x219;" horiz-adv-x="933" d="M74 129l98 145q12 -16 36.5 -35.5t104.5 -54t162 -34.5q70 0 122 35.5t52 97.5q0 51 -56 91t-135 70.5t-159 66.5t-136.5 105.5t-56.5 163.5q0 141 109 221t274 80q102 0 187.5 -28.5t120.5 -57.5l32 -30l-81 -152q-10 10 -30 25.5t-88.5 42t-142.5 26.5t-124 -32.5 t-50 -98.5q0 -51 56.5 -89t136.5 -67.5t158.5 -66.5t135 -105.5t56.5 -164.5q0 -135 -105.5 -221.5t-275.5 -86.5q-117 0 -216 39t-142 78zM362 -426q41 113 41 175.5t-24 127.5h176q14 -57 14 -106q0 -86 -51 -197h-156z" />
<glyph unicode="&#x21a;" horiz-adv-x="1236" d="M10 1294v181h1219v-181h-506v-1294h-207v1294h-506zM508 -426q39 113 39 175.5t-25 127.5h178q14 -57 15 -106q0 -86 -53 -197h-154z" />
<glyph unicode="&#x21b;" horiz-adv-x="747" d="M66 879v163h143v306h197v-306h253v-163h-253v-469q0 -61 16 -106.5t40.5 -70t56.5 -39t58.5 -18.5t53.5 -4l49 4v-180q-31 -4 -72 -4q-51 0 -97 6t-104.5 31.5t-100.5 65.5t-72.5 116t-30.5 176v492h-137zM348 -426q41 113 41 175.5t-27 127.5h179q14 -57 14 -106 q0 -86 -51 -197h-156z" />
<glyph unicode="&#x2c6;" horiz-adv-x="1040" d="M231 1577l185 266h211l184 -266h-178l-111 168h-4l-108 -168h-179z" />
<glyph unicode="&#x2c7;" horiz-adv-x="1040" d="M231 1843h179l108 -170h4l111 170h178l-184 -266h-211z" />
<glyph unicode="&#x2d8;" horiz-adv-x="1040" d="M246 1812v31h151v-28q0 -61 37 -93t88 -32q49 0 86 32.5t37 94.5v26h152v-31q0 -115 -81 -179t-194 -64q-115 0 -195.5 64t-80.5 179z" />
<glyph unicode="&#x2d9;" horiz-adv-x="1044" d="M430 1638v205h182v-205h-182z" />
<glyph unicode="&#x2da;" horiz-adv-x="1044" d="M344 1706q0 72 52.5 115t126 43t125.5 -43t52 -115q0 -68 -52 -111t-125.5 -43t-126 43t-52.5 111zM453 1706q0 -29 19.5 -48.5t49.5 -19.5q29 0 49.5 19.5t20.5 48.5q0 35 -20.5 54.5t-49.5 19.5q-31 0 -50 -19.5t-19 -54.5z" />
<glyph unicode="&#x2db;" horiz-adv-x="1040" d="M354 -233q0 141 176 262l31 18l129 -27q-20 -12 -46 -32.5t-71 -75.5t-45 -98q0 -35 30 -57.5t58 -28.5l29 -4l-47 -156q-10 0 -26.5 3t-57.5 15.5t-73.5 33t-59.5 58.5t-27 89z" />
<glyph unicode="&#x2dc;" horiz-adv-x="1040" d="M170 1579q0 266 213 266q59 0 105.5 -35.5t84 -71.5t72.5 -36q43 0 62.5 41t19.5 96h145q0 -266 -213 -266q-59 0 -105 36t-84 70.5t-73 34.5q-82 0 -82 -135h-145z" />
<glyph unicode="&#x2dd;" horiz-adv-x="1040" d="M180 1577l142 266h182l-150 -266h-174zM502 1577l151 266h211l-200 -266h-162z" />
<glyph unicode="&#x1e9e;" horiz-adv-x="1439" d="M184 0v1057q0 182 120 300t304 118h664v-140l-291 -424l-49 -69v-4h26q170 0 273.5 -124t103.5 -286q0 -178 -129 -303t-307 -125h-303v180h287q104 0 171.5 73t67.5 175q0 104 -66.5 174t-195.5 70h-155v145l235 352q88 127 92 127v4q-14 -6 -90 -6h-328 q-96 0 -158.5 -66.5t-62.5 -166.5v-1061h-209z" />
<glyph unicode="&#x2000;" horiz-adv-x="931" />
<glyph unicode="&#x2001;" horiz-adv-x="1863" />
<glyph unicode="&#x2002;" horiz-adv-x="931" />
<glyph unicode="&#x2003;" horiz-adv-x="1863" />
<glyph unicode="&#x2004;" horiz-adv-x="620" />
<glyph unicode="&#x2005;" horiz-adv-x="464" />
<glyph unicode="&#x2006;" horiz-adv-x="309" />
<glyph unicode="&#x2007;" horiz-adv-x="309" />
<glyph unicode="&#x2008;" horiz-adv-x="231" />
<glyph unicode="&#x2009;" horiz-adv-x="28" />
<glyph unicode="&#x200a;" horiz-adv-x="102" />
<glyph unicode="&#x2010;" horiz-adv-x="985" d="M188 506v180h611v-180h-611z" />
<glyph unicode="&#x2011;" horiz-adv-x="985" d="M188 506v180h611v-180h-611z" />
<glyph unicode="&#x2012;" horiz-adv-x="985" d="M188 506v180h611v-180h-611z" />
<glyph unicode="&#x2013;" horiz-adv-x="1474" d="M188 514v162h1098v-162h-1098z" />
<glyph unicode="&#x2014;" horiz-adv-x="1892" d="M188 514v162h1516v-162h-1516z" />
<glyph unicode="&#x2018;" horiz-adv-x="473" d="M102 1090l138 407h149l-90 -407h-197z" />
<glyph unicode="&#x2019;" horiz-adv-x="456" d="M106 1092l91 407h196l-137 -407h-150z" />
<glyph unicode="&#x201a;" horiz-adv-x="507" d="M88 -188l90 407h191l-138 -407h-143z" />
<glyph unicode="&#x201c;" horiz-adv-x="770" d="M102 1090l138 407h151l-90 -407h-199zM397 1090l138 407h151l-90 -407h-199z" />
<glyph unicode="&#x201d;" horiz-adv-x="751" d="M106 1092l91 407h198l-139 -407h-150zM401 1092l91 407h198l-137 -407h-152z" />
<glyph unicode="&#x201e;" horiz-adv-x="798" d="M88 -188l90 407h191l-138 -407h-143zM377 -188l88 407h192l-135 -407h-145z" />
<glyph unicode="&#x2020;" horiz-adv-x="880" d="M88 897v160h252v418h195v-418h260v-160h-260v-1001h-195v1001h-252z" />
<glyph unicode="&#x2021;" horiz-adv-x="956" d="M125 356v164h254v377h-254v160h254v418h192v-418h260v-160h-260v-377h260v-164h-260v-460h-192v460h-254z" />
<glyph unicode="&#x2022;" horiz-adv-x="858" d="M106 608q0 135 95.5 229.5t228.5 94.5t227.5 -95.5t94.5 -228.5t-94.5 -228t-227.5 -95t-228.5 94t-95.5 229z" />
<glyph unicode="&#x2026;" horiz-adv-x="1607" d="M160 0v215h205v-215h-205zM700 0v215h209v-215h-209zM1243 0v215h207v-215h-207z" />
<glyph unicode="&#x202f;" horiz-adv-x="372" />
<glyph unicode="&#x2030;" horiz-adv-x="2328" d="M100 1190q0 129 92.5 219t223.5 90t224 -90t93 -218t-93 -219t-224 -91t-223.5 90t-92.5 219zM131 0l1129 1475h196l-1128 -1475h-197zM262 1190q0 -66 44 -110t109.5 -44t109.5 44t44 110t-44 112t-109.5 46t-109.5 -46t-44 -112zM856 285q0 127 93 218t225 91 q129 0 223 -91t94 -219t-94 -218.5t-223 -90.5q-133 0 -225.5 89.5t-92.5 220.5zM1020 285q0 -68 44 -112t110 -44t110.5 45t44.5 109.5t-45 110.5t-109.5 46t-109.5 -46t-45 -109zM1597 285q0 127 92.5 218t224.5 91t224 -91t92 -219t-92 -218.5t-224 -90.5t-224.5 89.5 t-92.5 220.5zM1759 285q0 -68 44 -112t110.5 -44t110.5 44t44 112q0 63 -45 109t-109.5 46t-109.5 -46t-45 -109z" />
<glyph unicode="&#x2039;" horiz-adv-x="741" d="M92 590l342 430h203l-342 -430l342 -428h-203z" />
<glyph unicode="&#x203a;" horiz-adv-x="741" d="M104 162l342 428l-342 430h203l342 -430l-342 -428h-203z" />
<glyph unicode="&#x2044;" horiz-adv-x="350" d="M-252 0l701 1475h157l-702 -1475h-156z" />
<glyph unicode="&#x205f;" horiz-adv-x="464" />
<glyph unicode="&#x2070;" d="M78 1341q0 475 328 476q330 0 329 -476q0 -479 -329 -479q-328 0 -328 479zM236 1341q0 -334 170 -333q172 0 172 333q0 330 -172 330q-170 0 -170 -330z" />
<glyph unicode="&#x2074;" d="M45 1108v104l420 584h170v-551h127v-137h-127v-225h-154v225h-436zM217 1245h264v256l6 123h-4q-31 -57 -61 -100l-205 -275v-4z" />
<glyph unicode="&#x2075;" d="M90 1006l94 106q8 -12 22.5 -29.5t65 -46t109.5 -28.5q76 0 130 49t54 121.5t-54 123t-132 50.5q-43 0 -82 -11.5t-57 -23.5l-19 -10l-88 32l49 457h484v-139h-355l-14 -129l-10 -68h4q47 20 117 21q137 0 227 -89t90 -214q0 -129 -94 -222.5t-242 -93.5q-174 0 -287 127 z" />
<glyph unicode="&#x2076;" d="M86 1286q0 129 42 246t138 201t234 84q49 0 97 -11.5t71 -21.5l24 -12l-51 -134q-70 33 -137 33q-94 0 -158.5 -73.5t-83.5 -188.5h4q68 66 166 66q135 0 220 -83t85 -216q0 -139 -86 -226.5t-221 -87.5q-150 0 -247 115.5t-97 308.5zM248 1243q0 -88 52 -161.5 t130 -73.5q70 0 111 49t41 121q0 78 -46.5 127t-123.5 49q-66 0 -115 -35t-49 -76z" />
<glyph unicode="&#x2077;" d="M96 1657v139h631v-106l-434 -807h-172l366 676l58 98v4q-39 -4 -92 -4h-357z" />
<glyph unicode="&#x2078;" d="M76 1147q0 135 145 235q-102 74 -102 191q0 115 87 179.5t208 64.5q119 0 208 -65.5t89 -182.5q0 -119 -115 -234q133 -78 133 -207q0 -117 -95 -191.5t-228.5 -74.5t-231.5 76t-98 209zM227 1153q0 -72 53.5 -113t125.5 -41q66 0 114.5 38t48.5 98q0 27 -10 49t-42 43.5 t-49 32t-72.5 35t-67.5 30.5q-101 -78 -101 -172zM272 1567q0 -43 35 -79t68 -51.5t108 -47.5q78 80 78 172q0 55 -44 87.5t-105 32.5q-59 0 -99.5 -29.5t-40.5 -84.5z" />
<glyph unicode="&#x2079;" d="M76 1503q0 139 85 226.5t220 87.5q150 0 247 -116t97 -308q0 -127 -41 -244t-138 -202t-233 -85q-111 0 -194 47l53 133q68 -33 135 -32q96 0 158.5 72.5t83.5 187.5h-4q-63 -63 -164 -64q-139 0 -222 84t-83 213zM231 1503q0 -76 46.5 -126t123.5 -50q63 0 112.5 34 t49.5 77q0 88 -53 161.5t-129 73.5q-70 0 -110 -48t-40 -122z" />
<glyph unicode="&#x2080;" d="M78 129q0 477 328 477q330 0 329 -477q0 -477 -329 -477q-328 0 -328 477zM236 129q0 -334 170 -334q172 0 172 334q0 330 -172 330q-170 0 -170 -330z" />
<glyph unicode="&#x2081;" d="M135 371l221 215h144v-776h190v-138h-543v138h195v520l4 55h-4q-8 -20 -37 -47l-74 -70z" />
<glyph unicode="&#x2082;" d="M98 -252q0 98 46 174t110.5 123t129.5 88t111 89t46 104q0 59 -43 97t-107 38q-98 -4 -176 -101l-102 95q4 6 11 17t33.5 35.5t57.5 44t80 37t104 17.5q129 0 215 -76.5t86 -197.5q0 -84 -43 -150.5t-105.5 -109.5t-126 -80t-107.5 -82t-48 -100h445v-138h-611 q0 8 -2 23.5t-3 28t-1 24.5z" />
<glyph unicode="&#x2083;" d="M84 -213l88 111q8 -12 24.5 -28.5t72 -46.5t116.5 -30q68 0 120 46t52 114t-55.5 107.5t-128.5 39.5h-72l-33 80l185 215l51 49v5q-41 -6 -76 -7h-295v142h567v-101l-227 -264q104 -14 174 -81.5t70 -184.5q0 -125 -93.5 -214t-232.5 -89q-94 0 -171 33.5t-107 70.5z" />
<glyph unicode="&#x2084;" d="M45 0l420 586h170v-553h127v-137h-127v-224h-154v224h-436v104zM217 33h264v258l6 121h-4q-31 -57 -61 -101l-205 -274v-4z" />
<glyph unicode="&#x2085;" d="M90 -207l94 107q8 -12 22.5 -28.5t65 -46.5t109.5 -30q76 0 130 49.5t54 122t-54 122.5t-132 50q-43 0 -82 -11t-57 -24l-19 -10l-88 33l49 459h484v-142h-355l-14 -129l-10 -67h4q47 23 117 22q137 0 227 -89t90 -214q0 -131 -94 -223t-242 -92q-174 0 -287 127z" />
<glyph unicode="&#x2086;" d="M86 76q0 127 42 243.5t138 201.5t234 85q49 0 97 -11t71 -24l24 -12l-51 -133q-70 33 -137 33q-94 0 -158.5 -74t-83.5 -186h4q68 66 166 65q135 0 220 -84t85 -215q0 -141 -86 -227t-221 -86q-150 0 -247 115.5t-97 308.5zM248 31q0 -88 52 -162t130 -74q70 0 111 49.5 t41 122.5q0 76 -46.5 125t-123.5 49q-66 0 -115 -33.5t-49 -76.5z" />
<glyph unicode="&#x2087;" d="M96 442v142h631v-107l-434 -807h-172l366 674l58 98v4q-39 -4 -92 -4h-357z" />
<glyph unicode="&#x2088;" d="M76 -63q0 137 145 237q-102 72 -102 188q0 117 87 181.5t208 64.5q119 0 208 -65.5t89 -184.5t-115 -233q133 -78 133 -207q0 -117 -95 -190.5t-228.5 -73.5t-231.5 75t-98 208zM227 -57q0 -70 53.5 -112t125.5 -42q66 0 114.5 39t48.5 96q0 29 -10 50.5t-42 43t-49 32.5 t-72.5 35t-67.5 30q-101 -78 -101 -172zM272 356q0 -43 35 -78.5t68 -51t108 -46.5q78 78 78 170q0 57 -44 90t-105 33q-59 0 -99.5 -31t-40.5 -86z" />
<glyph unicode="&#x2089;" d="M76 293q0 137 85 225t220 88q150 0 247 -115.5t97 -308.5q0 -127 -41 -244.5t-138 -201.5t-233 -84q-111 0 -194 45l53 133q68 -33 135 -33q96 0 158.5 73t83.5 189h-4q-63 -66 -164 -65q-139 0 -222 85t-83 214zM231 293q0 -78 46.5 -128t123.5 -50q63 0 112.5 34.5 t49.5 75.5q0 88 -53 162t-129 74q-70 0 -110 -48t-40 -120z" />
<glyph unicode="&#x20ac;" horiz-adv-x="1232" d="M80 539v131h115q-8 84 0 151h-115v133h139q63 240 257 392.5t450 152.5q51 0 103 -6t81 -12l27 -6l-52 -191q-76 25 -163 25q-174 0 -302 -96.5t-182 -258.5h588l-27 -133h-589q-12 -70 -2 -151h563l-27 -131h-502q49 -164 181.5 -265.5t306.5 -101.5q45 0 93 6t71 15 l26 6l39 -189q-100 -35 -233 -35q-264 0 -457 156t-252 408h-137z" />
<glyph unicode="&#x2122;" horiz-adv-x="1961" d="M47 1335v140h795v-140h-318v-780h-159v780h-318zM909 555l72 920h145l217 -480l29 -88h4q12 49 27 88l219 480h145l72 -920h-158l-43 551l2 61h-4l-198 -442h-127l-199 442h-4l2 -61l-45 -551h-156z" />
<glyph unicode="&#x2212;" horiz-adv-x="1280" d="M100 514v162h1080v-162h-1080z" />
<glyph unicode="&#x221e;" horiz-adv-x="1060" d="M150 728q0 157 112.5 268.5t267.5 111.5q160 0 270.5 -109.5t110.5 -269.5q0 -158 -110.5 -269.5t-270.5 -111.5q-156 0 -268 111.5t-112 268.5z" />
<glyph unicode="&#x2248;" horiz-adv-x="1280" d="M119 399q145 152 315 152q104 0 224 -72.5t190 -72.5q123 0 229 114l86 -123q-145 -152 -315 -151q-104 0 -224 73.5t-190 73.5q-119 0 -229 -114zM119 795q145 152 315 151q104 0 224 -72.5t190 -72.5q123 0 229 114l86 -122q-145 -152 -315 -152q-104 0 -224 73.5 t-190 73.5q-117 0 -229 -118z" />
<glyph unicode="&#x2260;" horiz-adv-x="1280" d="M141 315v164h340l166 232h-506v161h615l172 242l106 -74l-121 -168h226v-161h-334l-166 -232h500v-164h-611l-166 -233l-108 70l119 163h-232z" />
<glyph unicode="&#x2264;" horiz-adv-x="1280" d="M139 526v138l975 436v-187l-749 -315v-4l749 -315v-187zM141 -199h973v-161h-973v161z" />
<glyph unicode="&#x2265;" horiz-adv-x="1280" d="M168 92v187l747 315v4l-747 315v187l975 -436v-138zM168 -199h971v-161h-971v161z" />
<glyph unicode="&#xe000;" horiz-adv-x="1055" d="M0 1055h1055v-1055h-1055v1055z" />
<glyph horiz-adv-x="698" d="M248 -426q41 113 41 175.5t-25 127.5h176q14 -57 15 -106q0 -86 -52 -197h-155z" />
<glyph horiz-adv-x="2359" d="M88 457v581l262 148v315l555 297l279 -147l276 147l553 -297v-315l260 -148v-581l-260 -150v-317l-553 -295l-276 149l-279 -149l-555 295v317zM197 487l237 -135v-289l498 -264l252 138l248 -138l495 264v289l240 135v521l-240 137v285l-495 262l-248 -133l-252 133 l-498 -262v-285l-237 -137v-521zM299 512v469l207 123v256l448 237l230 -122l223 122l448 -237v-256l209 -123v-469l-209 -125v-254l-448 -237l-223 120l-230 -120l-448 237v254zM795 1106h120v-916h164v426h430v144h-430v346h316q31 0 41 -13.5t10 -41.5v-70h151v156 q0 57 -24.5 83.5t-87.5 26.5h-690v-141z" />
<glyph horiz-adv-x="1198" d="M82 739q0 760 520 760q522 0 522 -760q0 -764 -522 -764q-520 0 -520 764zM293 739q0 -573 309 -573q311 0 311 573q0 571 -311 572q-309 -1 -309 -572z" />
<glyph horiz-adv-x="1198" d="M193 1133l352 342h184v-1295h322v-180h-848v180h325v953l2 92h-4q-16 -35 -71 -86l-138 -135z" />
<glyph horiz-adv-x="1198" d="M133 113q0 123 53.5 228t134 175t175 138.5t174.5 124t133 129t53 153.5q0 109 -73.5 177.5t-190.5 68.5q-55 0 -106.5 -20.5t-84 -47.5t-59.5 -54.5t-37 -47.5l-12 -19l-154 103q6 10 17.5 29.5t51.5 67.5t89 85t132 66.5t177 29.5q205 0 335 -116.5t130 -307.5 q0 -98 -38 -183t-101.5 -146.5t-138 -119t-150.5 -106.5t-138.5 -99t-102.5 -112.5t-40 -128.5h732v-180h-951q-10 68 -10 113z" />
<glyph horiz-adv-x="1198" d="M104 176l113 156q16 -18 46 -44t124 -71t186 -45q127 0 214 76t87 192q0 129 -97 201t-245 72h-102l-47 110l322 377l92 96v4q-45 -6 -127 -6h-498v181h881v-132l-402 -462q172 -18 302 -127t130 -305.5t-139 -335t-360 -138.5q-84 0 -165 20.5t-135.5 50.5t-97.5 58.5 t-61 49.5z" />
<glyph horiz-adv-x="1198" d="M43 395v129l682 951h236v-906h200v-174h-200v-395h-203v395h-715zM272 569h486v539l8 145h-4q-33 -70 -72 -120l-418 -560v-4z" />
<glyph horiz-adv-x="1198" d="M111 180l114 150q4 -6 13.5 -16.5t41 -39t66.5 -49t90.5 -37t112.5 -16.5q135 0 229 83t94 215t-95 217t-240 85q-63 0 -126 -18.5t-94 -34.5l-28 -19l-119 43l72 732h743v-181h-563l-35 -311l-10 -76h4q80 45 188 45q229 0 371.5 -139t142.5 -340q0 -215 -148.5 -356.5 t-373.5 -141.5q-252 0 -422 170z" />
<glyph horiz-adv-x="1198" d="M94 670q0 147 41 290.5t119 266.5t209 197.5t295 74.5q78 0 148.5 -14.5t105.5 -30.5l32 -14l-67 -178q-94 49 -211 49q-188 0 -302 -145.5t-140 -350.5h4q47 61 137 100t188 39q207 0 337 -139t130 -348q0 -217 -134 -354.5t-341 -137.5q-240 0 -395.5 192t-155.5 503z M311 571q0 -150 98.5 -277.5t233.5 -127.5q123 0 197.5 85t74.5 216q0 139 -82.5 225t-220.5 86q-123 0 -212 -62.5t-89 -144.5z" />
<glyph horiz-adv-x="1198" d="M125 1294v181h987v-142l-668 -1333h-213l576 1161q18 37 38.5 71t33.5 50l14 14v4q-35 -6 -111 -6h-657z" />
<glyph horiz-adv-x="1198" d="M84 426q0 78 28.5 149.5t76 123t76 77t54.5 43.5q-166 119 -165 295q0 158 119.5 271.5t340.5 113.5q207 0 335 -107.5t128 -285.5q0 -190 -174 -385q201 -123 201 -313q0 -178 -141.5 -305.5t-364.5 -127.5t-368.5 126t-145.5 325zM295 438q0 -123 90 -199.5t213 -76.5 q119 0 206 70.5t87 181.5q0 37 -19.5 71.5t-44 58t-72.5 52.5t-85 45t-99.5 45t-97.5 45q-178 -123 -178 -293zM358 1110q0 -31 11.5 -57.5t22.5 -48t40 -44t48.5 -35t61.5 -34t62.5 -30.5t71.5 -29.5t69 -28.5q129 129 129 289q0 100 -72.5 161.5t-189.5 61.5 q-119 0 -186.5 -59.5t-67.5 -145.5z" />
<glyph horiz-adv-x="1198" d="M84 1008q0 217 133 354t340 137q240 0 396.5 -191.5t156.5 -502.5q0 -147 -41 -289.5t-120 -266.5t-209 -199t-296 -75q-76 0 -148.5 14.5t-102.5 30.5l-33 15l65 180q94 -49 211 -49q190 0 303 144.5t140 348.5h-5q-43 -61 -135 -99t-190 -38q-207 0 -336 138.5 t-129 347.5zM289 1008q0 -139 81 -225.5t222 -86.5q123 0 212 63.5t89 143.5q0 150 -98.5 279t-235.5 129q-125 0 -197.5 -86t-72.5 -217z" />
<glyph horiz-adv-x="1064" d="M227 637v180h611v-180h-611z" />
<glyph horiz-adv-x="708" d="M193 772q0 440 241 825h178q-236 -393 -235 -827q0 -477 235 -905h-178q-241 403 -241 907z" />
<glyph horiz-adv-x="708" d="M98 -135q236 428 236 905q0 434 -236 827h178q242 -385 242 -825q0 -504 -242 -907h-178z" />
<glyph horiz-adv-x="733" d="M248 -135v1732h346v-151h-168v-1428h168v-153h-346z" />
<glyph horiz-adv-x="735" d="M139 18h168v1428h-168v151h348v-1732h-348v153z" />
<glyph horiz-adv-x="839" d="M143 651v180q6 0 19.5 2.5t43.5 16.5t54.5 37.5t43 70t18.5 105.5v176q0 94 26.5 164t62 106.5t87 59t88.5 28t73 5.5l50 -3v-153h-29q-29 0 -52.5 -7t-56 -27.5t-52 -68t-19.5 -116.5v-215q0 -59 -18.5 -107.5t-43 -76t-49 -48t-43.5 -28.5l-16 -7v-4q6 -2 17 -6 t41 -24.5t51.5 -48t41 -76.5t19.5 -109v-241q0 -70 19.5 -117t52 -67.5t56 -28t52.5 -7.5h29v-153q-18 -4 -50 -4q-37 0 -73.5 5t-88 27.5t-87 59.5t-62 107.5t-26.5 164.5v201q0 61 -18.5 105t-44.5 66.5t-51.5 36t-43.5 15.5z" />
<glyph horiz-adv-x="839" d="M131 16h31q27 0 50.5 7.5t56 28t52 67.5t19.5 117v241q0 94 43 161t84 85l43 18v4q-6 2 -17.5 7.5t-41 27t-51 48t-41 75.5t-19.5 109v215q0 70 -19.5 117t-52 67.5t-56.5 27.5t-50 7h-31v153q18 2 49 3q37 0 74 -5.5t88 -28t87 -59t62.5 -106.5t26.5 -164v-176 q0 -174 139 -223l39 -9v-180q-6 0 -19 -2t-43 -16.5t-54.5 -37t-43 -66.5t-18.5 -105v-201q0 -94 -26.5 -164.5t-62.5 -107.5t-87 -59.5t-88 -27.5t-74 -5l-49 4v153z" />
<glyph horiz-adv-x="1742" d="M154 735.5q0 323.5 222 547.5t542 224q281 0 411.5 -119.5t130.5 -306.5v-589h150v-154h-570q-190 0 -311 115.5t-121 279.5q0 162 120 277.5t312 115.5h226q-4 94 -93.5 154.5t-244.5 60.5q-240 0 -406 -180t-166 -426q0 -252 167 -427t427 -175v-164q-346 0 -571 221.5 t-225 545zM813 737.5q0 -102.5 68.5 -174t173.5 -71.5h211v493h-207q-106 0 -176 -72.5t-70 -175z" />
<glyph horiz-adv-x="1236" d="M131 715l344 430h201l-342 -430l342 -428h-201zM551 715l344 430h203l-344 -430l344 -428h-203z" />
<glyph horiz-adv-x="1239" d="M141 287l344 428l-344 430h203l344 -430l-344 -428h-203zM563 287l344 428l-344 430h203l344 -430l-344 -428h-203z" />
<glyph horiz-adv-x="817" d="M131 715l344 430h201l-342 -430l342 -428h-201z" />
<glyph horiz-adv-x="817" d="M141 287l344 428l-344 430h203l344 -430l-344 -428h-203z" />
<glyph horiz-adv-x="1552" d="M227 639v164h1100v-164h-1100z" />
<glyph horiz-adv-x="1970" d="M227 639v164h1518v-164h-1518z" />
<glyph horiz-adv-x="645" d="M219 614v215h207v-215h-207z" />
<glyph horiz-adv-x="1073" d="M150 354q0 96 37.5 173t92 128.5t109.5 98.5t93 106.5t38 126.5v82h197v-94q0 -86 -37 -160t-89 -123t-103.5 -95t-88.5 -103.5t-37 -120.5q0 -88 69 -148.5t171 -60.5q57 0 116.5 22.5t92.5 42.5l29 23l110 -143q-6 -6 -16 -14.5t-46 -32t-76 -41t-100.5 -32 t-123.5 -14.5q-182 0 -310 105.5t-128 273.5zM516 1272v203h207v-203h-207z" />
<glyph horiz-adv-x="727" d="M258 0l16 1069h181l12 -1069h-209zM258 1272v203h207v-203h-207z" />
<glyph horiz-adv-x="935" d="M145 737q0 135 94.5 229.5t231.5 94.5q133 0 227.5 -95.5t94.5 -228.5t-94.5 -228t-228.5 -95t-229.5 95t-95.5 228z" />
<glyph horiz-adv-x="1220" d="M109 567q0 158 51 289t168.5 220t283.5 89q242 0 372 -176t130 -424q0 -244 -129 -417t-372.5 -173t-373.5 174t-130 418zM313 570q0 -173 76 -296.5t222.5 -123.5t222 123.5t75.5 295.5t-76.5 296t-220.5 124q-147 0 -223 -123t-76 -296z" />
<glyph horiz-adv-x="991" d="M86 905l381 236h180v-967h289v-174h-803v174h318v639l2 123h-4q-33 -31 -80 -62l-191 -112z" />
<glyph horiz-adv-x="1112" d="M92 963q6 8 19.5 22t57.5 48t93 61.5t125 49t156 21.5q188 0 305 -101t117 -253q0 -176 -132.5 -321.5t-410.5 -317.5v-4q41 6 125 6h473v-174h-905v139q317 209 480 359.5t163 283.5q0 102 -70 152.5t-172 50.5q-156 0 -303 -143l-12 -13z" />
<glyph horiz-adv-x="1077" d="M29 -82l104 143q6 -6 16.5 -17t43 -36.5t69.5 -46t93.5 -37t111.5 -16.5q127 0 214 70.5t87 187.5q0 127 -101.5 193.5t-238.5 66.5h-109l-45 106l304 345q20 25 42.5 47t34.5 32l13 13v2q-43 -6 -125 -6h-430v176h827v-119l-403 -442q78 -8 150.5 -33t140 -70 t107.5 -123t40 -176q0 -193 -139.5 -319.5t-362.5 -126.5q-248 0 -416 159z" />
<glyph horiz-adv-x="1228" d="M57 70v129l648 942h239v-897h211v-174h-211v-312h-203v312h-684zM283 244h458v534l9 150h-5q-33 -78 -73 -131z" />
<glyph horiz-adv-x="1105" d="M61 -68l107 140q4 -6 13 -16.5t40 -36t64.5 -45t87 -36t110.5 -16.5q131 0 228.5 75t97.5 206t-95.5 205.5t-228.5 74.5q-66 0 -128 -16t-93 -33l-31 -16l-114 41l74 682h718v-176h-546l-31 -283l-12 -74h4q84 39 194 39q217 0 356.5 -118.5t139.5 -317.5 q0 -211 -147.5 -338t-370.5 -127q-82 0 -157 19.5t-124 46t-86 54.5t-53 46z" />
<glyph horiz-adv-x="1218" d="M123 614q0 139 40 276.5t115.5 254.5t205.5 189.5t292 72.5q78 0 150.5 -14.5t105.5 -26.5l31 -14l-66 -166q-94 47 -211 47q-186 0 -299.5 -140.5t-142.5 -336.5h4q49 63 139.5 100t188.5 37q205 0 334 -129t129 -324q0 -203 -133.5 -334t-337.5 -131q-238 0 -391.5 174 t-153.5 465zM336 532q0 -141 95 -261.5t235 -120.5q127 0 197.5 80.5t70.5 207.5t-81 207t-218 80q-121 0 -210 -58.5t-89 -134.5z" />
<glyph horiz-adv-x="1073" d="M61 967v174h961v-133l-637 -1250h-213l547 1084q39 82 76 125v4q-31 -4 -103 -4h-631z" />
<glyph horiz-adv-x="1216" d="M106 399q0 68 28 133.5t69 112.5t73.5 75t61.5 46q-164 111 -164 278q0 150 117 256.5t330 106.5q201 0 326.5 -100.5t125.5 -270.5q0 -84 -44 -175t-71.5 -125t-52.5 -60q199 -115 199 -293q0 -168 -138.5 -288t-357.5 -120q-215 0 -358.5 119t-143.5 305zM311 412 q0 -115 88 -188.5t209 -73.5q119 0 205 66.5t86 170.5q0 41 -20.5 77t-71.5 67.5t-83 50t-118 53.5t-112 49q-183 -114 -183 -272zM373 1040q0 -27 9 -53t21.5 -44.5t40 -40t46 -34t59.5 -32t60.5 -27.5t69.5 -28.5t69 -28.5q127 127 126 274q0 96 -70.5 152.5t-185.5 56.5 q-113 0 -179 -55.5t-66 -139.5z" />
<glyph horiz-adv-x="1218" d="M82 700q0 205 132 335t337 130q240 0 393.5 -174t153.5 -465q0 -139 -40 -276t-117 -254t-206 -190.5t-291 -73.5q-174 0 -288 57l67 166q94 -47 211 -47q188 0 302 141t138 338h-4q-45 -66 -136 -102.5t-191 -36.5q-205 0 -333 128.5t-128 323.5zM287 701 q0 -128 81 -206.5t220 -78.5q121 0 208 58t87 136q0 139 -94.5 259t-235.5 120q-125 0 -195.5 -80t-70.5 -208z" />
<glyph horiz-adv-x="1198" d="M100 567q0 158 51.5 289t169 220t283.5 89q242 0 372 -176t130 -424q0 -244 -129 -417t-374 -173t-374 174t-129 418zM305 570q0 -173 76 -296.5t222.5 -123.5t222 123.5t75.5 295.5t-76.5 296t-220.5 124q-147 0 -223 -123t-76 -296z" />
<glyph horiz-adv-x="1198" d="M205 905l383 236h178v-967h289v-174h-803v174h317v639l2 123h-4q-33 -31 -80 -62l-190 -112z" />
<glyph horiz-adv-x="1198" d="M147 963q6 8 20.5 22t58.5 48t93.5 61.5t125 49t155.5 21.5q188 0 305 -101t117 -253q0 -176 -133 -321.5t-410 -317.5v-4q41 6 125 6h471v-174h-903v139q317 209 480 359.5t163 283.5q0 102 -70.5 152.5t-173.5 50.5q-154 0 -301 -143l-14 -13z" />
<glyph horiz-adv-x="1198" d="M111 -80l104 143q6 -6 15.5 -17t43 -36.5t70.5 -46t93.5 -37t111.5 -16.5q125 0 212 71.5t87 186.5q0 127 -100.5 193.5t-237.5 66.5h-109l-47 107l303 342q23 25 44.5 47t33.5 32l13 13v2q-43 -6 -123 -6h-430v176h825v-119l-402 -440q78 -8 150 -33t138.5 -70 t107.5 -122.5t41 -176.5q0 -193 -140.5 -319.5t-361.5 -126.5q-246 0 -416 160z" />
<glyph horiz-adv-x="1198" d="M59 70v129l648 942h239v-897h211v-174h-211v-312h-203v312h-684zM285 244h458v534l9 150h-4q-33 -78 -74 -131z" />
<glyph horiz-adv-x="1198" d="M121 -68l106 140q4 -6 13.5 -16.5t41 -36t65.5 -45t87 -36t109 -16.5q131 0 228 75t97 206t-94 205.5t-229 74.5q-63 0 -127 -16t-92 -33l-31 -16l-115 41l72 682h719v-176h-545l-31 -283l-12 -74h4q84 39 195 39q217 0 355 -118.5t138 -317.5q0 -211 -147.5 -338 t-370.5 -127q-80 0 -155.5 19.5t-125 46t-86 54.5t-53.5 46z" />
<glyph horiz-adv-x="1198" d="M94 614q0 139 40 276.5t116 254.5t206 189.5t292 72.5q78 0 149.5 -14.5t106.5 -26.5l30 -14l-67 -166q-94 47 -211 47q-186 0 -300 -140.5t-141 -336.5h4q49 63 138.5 100t189.5 37q205 0 334 -129t129 -324q0 -203 -133 -334t-338 -131q-238 0 -391.5 174t-153.5 465z M307 532q0 -141 95.5 -261.5t234.5 -120.5q125 0 196.5 80.5t71.5 207.5t-81 207t-218 80q-121 0 -210 -58.5t-89 -134.5z" />
<glyph horiz-adv-x="1198" d="M121 967v174h960v-133l-637 -1250h-213l547 1084q41 82 76 125v4q-29 -4 -102 -4h-631z" />
<glyph horiz-adv-x="1198" d="M96 399q0 68 27 133.5t68.5 112.5t74.5 75t62 46q-164 111 -164 278q0 150 116.5 256.5t329.5 106.5q201 0 327 -100.5t126 -270.5q0 -84 -44 -175t-71.5 -125t-52.5 -60q197 -115 197 -293q0 -168 -137.5 -288t-356.5 -120q-215 0 -358.5 119t-143.5 305zM301 412 q0 -115 88 -188.5t209 -73.5q119 0 205 66.5t86 170.5q0 41 -20.5 77t-72 67.5t-83 50t-117.5 53.5t-113 49q-182 -114 -182 -272zM360 1040q0 -27 10.5 -53t23 -44.5t39 -40t46 -34t60.5 -32t60 -27.5t69.5 -28.5t68.5 -28.5q127 127 127 274q0 96 -70.5 152.5t-185.5 56.5 q-113 0 -180.5 -55.5t-67.5 -139.5z" />
<glyph horiz-adv-x="1198" d="M92 700q0 205 132 335t337 130q240 0 393.5 -174t153.5 -465q0 -139 -40 -276t-117 -254t-206 -190.5t-290 -73.5q-174 0 -287 57l65 166q94 -47 211 -47q188 0 302 141t139 338h-4q-45 -66 -136.5 -102.5t-191.5 -36.5q-205 0 -333 128.5t-128 323.5zM297 701 q0 -128 81 -206.5t220 -78.5q121 0 209 58t88 136q0 139 -95 259t-237 120q-125 0 -195.5 -80t-70.5 -208z" />
<glyph horiz-adv-x="1103" d="M104 178l109 148q6 -6 16.5 -17.5t46 -41t72.5 -51t94.5 -39t112.5 -17.5q98 0 161.5 43t63.5 121q0 61 -64.5 108t-156.5 81t-183 76t-156.5 119.5t-65.5 182.5q0 139 96 228t252 108v182h145v-180q94 -8 173 -40t110 -61l31 -26l-87 -162q-12 12 -34.5 30.5t-98 49.5 t-153.5 31q-98 0 -160.5 -41t-62.5 -125q0 -59 65.5 -104.5t157.5 -80t183 -74.5t155.5 -117t64.5 -185q0 -135 -98 -230.5t-260 -111.5v-195h-146v193q-217 25 -366 180z" />
<glyph horiz-adv-x="1165" d="M111 624.5q0 196.5 119.5 336t318.5 172.5v176h153v-170q203 -16 338 -152l13 -12l-95 -150q-12 14 -34.5 36t-99 58.5t-158.5 36.5q-154 0 -253.5 -94t-99.5 -235q0 -145 99.5 -240.5t253.5 -95.5q164 0 282 123l10 10l95 -150q-14 -18 -42 -41.5t-118 -68.5t-191 -53 v-168h-153v174q-197 31 -317.5 171t-120.5 336.5z" />
<glyph horiz-adv-x="1298" d="M119 0v174h127v330h-94v141h94v184q0 174 134 289t333 115q98 0 188 -29.5t133 -58.5l41 -27l-100 -151q-117 84 -258 84q-119 0 -192.5 -65.5t-73.5 -162.5v-178h452v-141h-452v-330h679v-174h-1011z" />
<glyph horiz-adv-x="1296" d="M104 1210h234l217 -385q47 -82 90 -188h4q45 106 90 188l217 385h234l-289 -485h199v-133h-279l-71 -119v-31h350v-131h-350v-311h-205v311h-344v131h344v31l-72 119h-272v133h194z" />
<glyph horiz-adv-x="1193" d="M59 -78q80 -12 138 -12q35 0 68.5 8t72.5 30.5t65.5 72t32.5 120.5l43 494h-172v164h187l20 219q8 100 45 174t82 115t104.5 64.5t105.5 30.5t93 7q35 0 79 -4t71 -8l26 -4v-172q-102 14 -166 14q-35 0 -68.5 -8t-73.5 -30.5t-66.5 -72t-32.5 -120.5l-19 -205h244v-164 h-258l-45 -510q-8 -100 -45 -174t-82 -115t-104.5 -64.5t-105.5 -31.5t-93 -8l-146 16v174z" />
<glyph horiz-adv-x="1284" d="M119 414v123h133q-8 59 -2 127h-131v127h153q53 193 217 317.5t424 124.5l203 -25l-47 -168q-74 20 -158 21q-162 0 -269 -75t-155 -195h529l-29 -127h-532q-6 -66 2 -127h512l-25 -123h-450q49 -119 157.5 -193t266.5 -74q45 0 90 8.5t67 16.5l25 6l37 -170 q-96 -33 -224 -33q-250 0 -413.5 122t-220.5 317h-160z" />
<glyph d="M78 1020q0 475 328 475q330 0 329 -475q0 -479 -329 -479q-328 0 -328 479zM236 1020q0 -334 170 -334q172 0 172 334q0 330 -172 330q-170 0 -170 -330z" />
<glyph d="M135 1260l221 215h144v-775h190v-139h-543v139h195v521l4 53h-4q-8 -18 -37 -45l-74 -72z" />
<glyph d="M98 637q0 98 46 175t110.5 123t129.5 87t111 89t46 106q0 57 -43 96t-107 39q-98 -4 -176 -101l-102 95q4 6 11 16t33.5 35.5t57.5 45t80 36t104 16.5q129 0 215 -76t86 -196q0 -84 -43 -150.5t-105.5 -109.5t-126 -81t-107.5 -83t-48 -99h445v-139h-611q0 8 -2 24.5 t-3 29t-1 22.5z" />
<glyph d="M84 680l88 111q8 -14 24.5 -31t72 -45.5t116.5 -28.5q68 0 120 45t52 113q0 70 -55.5 108.5t-128.5 38.5h-72l-33 80l185 215l51 51v4q-41 -6 -76 -6h-295v140h567v-101l-227 -262q104 -14 174 -82.5t70 -185.5q0 -123 -93.5 -213t-232.5 -90q-94 0 -171 34.5t-107 67.5z " />
<glyph d="M45 786v105l420 584h170v-551h127v-138h-127v-225h-154v225h-436zM217 924h264v256l6 120h-4q-31 -55 -61 -100l-205 -272v-4z" />
<glyph d="M90 684l94 107q8 -14 22.5 -31t65 -45.5t109.5 -28.5q76 0 130 48t54 122t-54 124t-132 50q-43 0 -82 -11t-57 -24l-19 -12l-88 35l49 457h484v-140h-355l-14 -129l-10 -67h4q47 20 117 20q137 0 227 -89t90 -214q0 -129 -94 -222t-242 -93q-174 0 -287 127z" />
<glyph d="M86 965q0 127 42 244.5t138 201.5t234 84q49 0 97 -11t71 -22l24 -12l-51 -133q-70 33 -137 33q-94 0 -158.5 -75t-83.5 -188h4q68 66 166 66q135 0 220 -84t85 -215q0 -139 -86 -226t-221 -87q-150 0 -247 115.5t-97 308.5zM248 922q0 -88 52 -162t130 -74q70 0 111 48 t41 122q0 78 -46.5 127t-123.5 49q-66 0 -115 -34.5t-49 -75.5z" />
<glyph d="M96 1335v140h631v-107l-434 -807h-172l366 676l58 98v4q-39 -4 -92 -4h-357z" />
<glyph d="M76 825q0 135 145 236q-102 74 -102 190q0 115 87 179.5t208 64.5q119 0 208 -65.5t89 -182.5q0 -119 -115 -233q133 -78 133 -207q0 -117 -95 -191.5t-228.5 -74.5t-231.5 75.5t-98 208.5zM227 831q0 -72 53.5 -113.5t125.5 -41.5q66 0 114.5 39t48.5 98q0 27 -10 48.5 t-42 44t-49 32.5t-72.5 34.5t-67.5 31.5q-101 -79 -101 -173zM272 1245q0 -45 35 -80t68 -50t108 -48q78 80 78 172q0 55 -44 88t-105 33q-59 0 -99.5 -31t-40.5 -84z" />
<glyph d="M76 1182q0 139 85 226t220 87q150 0 247 -115.5t97 -308.5q0 -127 -41 -243.5t-138 -201.5t-233 -85q-111 0 -194 47l53 133q68 -33 135 -33q96 0 158.5 73t83.5 187h-4q-63 -66 -164 -65q-139 0 -222 85t-83 214zM231 1182q0 -76 46.5 -126t123.5 -50q63 0 112.5 33.5 t49.5 76.5q0 88 -53 162t-129 74q-70 0 -110 -48t-40 -122z" />
<glyph d="M78 457q0 477 328 477q330 0 329 -477q0 -477 -329 -477q-328 0 -328 477zM236 457q0 -334 170 -334q172 0 172 334q0 332 -172 331q-170 1 -170 -331z" />
<glyph d="M135 698l221 215h144v-776h190v-137h-543v137h195v520l4 56h-4q-8 -18 -37 -47l-74 -70z" />
<glyph d="M98 76q0 98 46 174t110.5 123t129.5 88t111 89t46 103q0 59 -43 98.5t-107 39.5q-98 -4 -176 -101l-102 92q4 8 11 18.5t33.5 35t57.5 45t80 37t104 16.5q129 0 215 -77t86 -198q0 -82 -43 -149.5t-105.5 -110.5t-126 -79.5t-107.5 -81.5t-48 -101h445v-137h-611 q0 8 -2 23.5t-3 29t-1 23.5z" />
<glyph d="M84 117l88 110q8 -12 24.5 -28.5t72 -46t116.5 -29.5q68 0 120 46t52 114t-55.5 107.5t-128.5 39.5h-72l-33 80l185 215l51 49v4q-41 -6 -76 -6h-295v141h567v-100l-227 -264q104 -14 174 -82t70 -184q0 -123 -93.5 -213t-232.5 -90q-94 0 -171 33.5t-107 70.5z" />
<glyph d="M45 223v105l420 585h170v-553h127v-137h-127v-223h-154v223h-436zM217 360h264v258l6 121h-4q-31 -55 -61 -100l-205 -274v-5z" />
<glyph d="M90 121l94 106q8 -12 22.5 -28.5t65 -46t109.5 -29.5q76 0 130 49t54 123t-54 123t-132 49q-43 0 -82 -11.5t-57 -21.5l-19 -12l-88 33l49 458h484v-141h-355l-14 -129l-10 -65h4q47 20 117 20q137 0 227 -89t90 -214q0 -129 -94 -222t-242 -93q-174 0 -287 126z" />
<glyph d="M86 403q0 127 42 244t138 202t234 85q49 0 97 -11.5t71 -23.5l24 -10l-51 -135q-70 35 -137 34q-94 0 -158.5 -74.5t-83.5 -187.5h4q68 66 166 66q135 0 220 -84t85 -215q0 -141 -86 -227t-221 -86q-150 0 -247 115t-97 308zM248 358q0 -86 52 -160.5t130 -74.5 q70 0 111 49t41 123q0 78 -46.5 127t-123.5 49q-66 0 -115 -35t-49 -78z" />
<glyph d="M96 772v141h631v-106l-434 -807h-172l366 674l58 98v4q-39 -4 -92 -4h-357z" />
<glyph d="M76 264q0 135 145 236q-102 72 -102 190q0 115 87 179.5t208 64.5q119 0 208 -65.5t89 -182.5q0 -121 -115 -235q133 -76 133 -207q0 -117 -95 -190.5t-228.5 -73.5t-231.5 74.5t-98 209.5zM227 270q0 -72 53.5 -113.5t125.5 -41.5q66 0 114.5 39t48.5 96q0 29 -10 50.5 t-42 43t-49 32.5t-72.5 34.5t-67.5 29.5q-101 -78 -101 -170zM272 684q0 -45 35 -81t68 -51t108 -46q78 80 78 170q0 57 -44 90t-105 33q-59 0 -99.5 -31t-40.5 -84z" />
<glyph d="M76 621q0 137 85 225t220 88q150 0 247 -116t97 -308q0 -127 -41 -245t-138 -201.5t-233 -83.5q-111 0 -194 45l53 135q68 -35 135 -35q96 0 158.5 73.5t83.5 188.5h-4q-63 -66 -164 -65q-139 0 -222 85t-83 214zM231 621q0 -78 46.5 -128.5t123.5 -50.5q63 0 112.5 35 t49.5 76q0 88 -53 163t-129 75q-70 0 -110 -48t-40 -122z" />
</font>
</defs>
</svg>
